>

5.6

iTunes

6.1

MVO

5.7

MVO

1

7.4

1 сезон

6.8

iTunes

7.2

1 сезон

13

6.7

1 сезон

8.3

RePack

30

Deluxe

pack

9.9

Лицензия

ВАЖНО

ИГРА 18+

pack

7.3

RePack

MK11

7.7

RePack

jed

7.8

RePack

fifa19

8.5

RePack

RDR2

RePack

NEED FOR SPEED™ PAYBACK

4 сезон

9 сезон

Бесстыжие 9 сезон

Все сериалы

все сериалы на PB.wtf

RePack

FAR CRY 5

Anonymous, добрый день, мы катастрофически не успеваем собрать деньги на оплату серверов, помогите нам пожалуйста 5,10,15р., для нас важна любая помощь . В качестве благодарности мы отключим Вам всю рекламу на сайте (укажите свой ник в строку Ваше имя)!

×
  
Magnet ссылка

Байкеры 3 / Dhoom: 3 (Виджай Кришна Ачария) [2013 г., боевик, триллер, криминал, BDRemux 1080p, Любительский (многоголосый) | ICG] freetor.icu

Байкеры 3 через торрент freetor.icu

Размер: 28.71 GB | Добавлен: 3 года 6 мес. назад | Торрент скачан:0 раз
Смотреть онлайн Байкеры 3 | Скачать    Ребята, помогите собрать деньги на оплату серверов!!!

09-03-2018 14:39 Байкеры 3 Скачать торрент  

Байкеры 3 / Dhoom: 3
Год выпуска: 2013
Страна: Индия
Жанр: боевик, триллер, криминал
Продолжительность: 172 мин. / 02:51
Перевод: Любительский (многоголосый) | ICG
Субтитры: Russian (Songs, Full), English (Full), Arabic (Full)

Режиссер: Виджай Кришна Ачария

Бюджет: 1.25 млрд рупий
Премьера в мире: 20 декабря 2013

rating

В ролях: Аамир Кхан, Катрина Кэйф, Табретт Бетелл, Абхишек Баччан, Джеки Шрофф, Удай Чопра, Рия Рэй, Жаклин Скисловски, М’лаа Каур Сингх, Дэльфин Понтвие и др.

Описание: Действие фильма начинается в Чикаго в 1990 году, когда Сахир был ребёнком и рос в цирке своего отца.
Но компания увязла в долгах и банкиры были непреклонны.
Отец Сахира от отчаяния застрелился.
С тех пор Сахир мечтает отомстить за смерть своего отца, и для этого он планирует ограбить тот самый банк.
Это первый индийский фильм, выпущенный в формате IMAX. 1) Амир Кхан и Катрина Каиф впервые разделят экранное пространство. 2) Трюк, в котором Аамир Кхан ездит на мотоцикле по веревке, был сделан при помощи компьютерной графики. В этой сцене только фон был отснят вживую. 3) Ради этого фильма Катрина сидит на специальной диете, чтобы продемонстрировать зрителям прекрасную форму. 4) Во время подготовки к роли Катрина брала уроки пения и парапланеризма. 5) Фильм снимался в Мумбаи (Индия), Чикаго (США) и Швейцарии. 6) Трюки в фильме исполнил известный швейцарский актер Оливер Келлер. 7) Дублерша Катрины Каиф в фильме - Шавна Донли, дублер Амира - Ник Бейлер, дублер Абхишека - Джеф Грофф. Это самый кассовый фильм Индии.
Качество: BDRemux 1080p
Формат: MKV
Видео кодек: AVC
Аудио кодек: AC3, DTS-HD MA
Видео: MPEG-4 AVC Video / 22786 kbps / 1920x1080 / 24,000 fps / High Profile 4.1
Аудио#1: Russian / AC3 / 5.1 / 48 kHz / 448 kbps / 16-bit | MVO ICG
Аудио#2: Hindi / AC3 / 5.1 / 48 kHz / 640 kbps / 16-bit | Original
Аудио#3: Hindi / DTS-HD MA / 5.1 / 48 kHz / 4729 kbps / 24-bit | Original
Аудио#4: English / AC3 / 2.0 / 48 kHz / 192 kbps / 16-bit | Commentary
Релиз от: ICG




Имя файла: Dhoom 3 2013 BDRemux 1080p HYPERHD.mkv
Формат файла: .mkv
Размер файла: 28,71 GB (30 824 737 961 bytes)
Длительность: 2h 51mn
Навигация по главам: Есть
Битрейт (все потоки): 24.0 Mbps
Тип битрейта (все потоки): Variable
Файл создан: UTC 2014-05-12 14:05:39
Создан при помощи: mkvmerge v6.9.1 ('Blue Panther') 64bit built on Apr 18 2014 18:23:38
Использовалась библиотека: libebml v1.3.0 + libmatroska v1.4.1
Обложка: Присутствует

Название: Dhoom: 3 2013 BDRemux 1080p HYPERHD

Тип потока: Видео
Длительность: 02:51:02
Кодек: AVC
Кодек/описание: Advanced Video Codec
Кодек/профиль: High@L4.1
Кодек/ID: V_MPEG4/ISO/AVC
Кодек/CABAC: Yes
Кодек/ReFrames: 4 frames
Размеры изображения: 1920 x 1080 (16:9)
Частота кадров: 24.000 fps
Частота кадров/тип: Constant
Битрейт/макс: 23.0 Mbps
Битрейт/тип: VBR
Стандарт: NTSC
Цветовое пространство: YUV
Тип развёртки: Progressive
Колориметрия: 4:2:0
Глубина: 8 bits

Тип потока: Звук #1
Язык: Russian
Название: MVO ICG
Длительность: 02:51:02.016
Кодек: AC-3
Кодек/описание: Audio Coding 3
Кодек/ID: A_AC3
Частота дискретизации: 48.0 KHz
Каналов: 6 channels
Битрейт: 448 Kbps
Битрейт/тип: Constant
Размер потока: 548 MiB (2%)
Глубина: 16 bits
Метод сжатия: Lossy

Тип потока: Звук #2
Язык: Hindi
Название: Original
Длительность: 02:51:02.016
Кодек: AC-3
Кодек/описание: Audio Coding 3
Кодек/ID: A_AC3
Частота дискретизации: 48.0 KHz
Каналов: 6 channels
Битрейт: 640 Kbps
Битрейт/тип: Constant
Размер потока: 783 MiB (3%)
Глубина: 16 bits
Метод сжатия: Lossy

Тип потока: Звук #3
Язык: Hindi
Название: Original
Длительность: 02:51:02.016
Кодек: DTS
Кодек/описание: Digital Theater Systems
Кодек/профиль: MA / Core
Кодек/ID: A_DTS
Частота дискретизации: 48.0 KHz
Каналов: 6 channels
Битрейт: Unknown / 1 509 Kbps
Битрейт/тип: Variable
Глубина: 24 bits
Метод сжатия: Lossless / Lossy

Тип потока: Звук #4
Язык: English
Название: Commentary
Длительность: 02:51:02.016
Кодек: AC-3
Кодек/описание: Audio Coding 3
Кодек/ID: A_AC3
Частота дискретизации: 48.0 KHz
Каналов: 2 channels
Битрейт: 192 Kbps
Битрейт/тип: Constant
Размер потока: 235 MiB (1%)
Глубина: 16 bits
Метод сжатия: Lossy

Тип потока: Субтитры #1
Язык: Russian
Формат: UTF-8
Формат/подробно: UTF-8 Plain Text
Название: Songs

Тип потока: Субтитры #2
Язык: Russian
Формат: UTF-8
Формат/подробно: UTF-8 Plain Text
Название: Full

Тип потока: Субтитры #3
Язык: English
Формат: UTF-8
Формат/подробно: UTF-8 Plain Text
Название: Full

Тип потока: Субтитры #4
Язык: English
Формат: PGS
Формат/подробно: The same subtitle format used on BDs/HD-DVDs
Название: Full

Тип потока: Субтитры #5
Язык: Arabic
Формат: PGS
Формат/подробно: The same subtitle format used on BDs/HD-DVDs
Название: Full

freetor.icu



Скачать Байкеры 3 через торрент https://pic1.kartinco.top/images/11/34ddi.jpg Скачать, смотреть онлайн Байкеры 3 бесплантно в хорошем качестве Описание: Действие фильма начинается в Чикаго в 1990 году, когда Сахир был ребёнком и рос в цирке своего отца.Но компания увязла в долгах и ... 10 10 2
Торрент: Зарегистрирован [2018-03-09 14:39] · скачан: 0 раз
Статус: √ проверено
Размер: 28.71 GB
Как cкачать? Как скачать Байкеры 3 через торрент | UTorrent

% Раздел Тема Автор DL S | L
Индийское кино [ 2.91 GB ] Байкеры 3 / Dhoom: 3 [2013 HDRip Любительское [ICG] AlexSAW Скачать
1 | 0


Последний раз редактировалось: AlexSAW (2018-03-09 15:13), всего редактировалось 1 раз

28-11-2019 20:33  

Отключить всю рекламу на сайте

09-03-2018 14:46 Байкеры 3 Скачать торрент  

1.25 млрд рупий . Это почти 1 к 1 . Получается почти 1.5 миллиарда рублей ? Это что там за танцы такие ?freetor.icu



09-03-2018 14:50 Байкеры 3 Скачать торрент  

PIXELINTERLAN писал(а):

1.25 млрд рупий . Это почти 1 к 1 . Получается почти 1.5 миллиарда рублей ? Это что там за танцы такие ?

Самые дорогие танцы в истории Индии) Хотя уже вышел фильм по дороже, не помню.freetor.icu



09-03-2018 14:57 Байкеры 3 Скачать торрент  

Топик был перенесен из форума Оформление раздач (Кино, Видео и ТВ) в форум Индийское кино


-Lexx-freetor.icu



09-03-2018 15:03 Байкеры 3 Скачать торрент  

alex140385, поправил постер, его размеры не должны превышать 700*700 пикселей.
И обратите внимание, сэмпл воспроизводится в онлайне с озвучкой, идущей последней по списку (то есть с комментариями)
Рекомендуется заливать сэмпл на http://sendfile.su

Правила раздела Фильмы. Как правильно оформить раздачу фильма (Редакция от 29.06.2017)freetor.icu



09-03-2018 15:15 Байкеры 3 Скачать торрент  

-Lexx- писал(а):

alex140385, поправил постер, его размеры не должны превышать 700*700 пикселей.
И обратите внимание, сэмпл воспроизводится в онлайне с озвучкой, идущей последней по списку (то есть с комментариями)
Рекомендуется заливать сэмпл на http://sendfile.su

Правила раздела Фильмы. Как правильно оформить раздачу фильма (Редакция от 29.06.2017)

Семпл перезалил по рекомендации. Спасибо за постер.freetor.icu
K-Lexx- писал(а):

И вам спасибо за раздачу.



    Дорогой пользователь! Огромная просьба, поблагодарите релизера, оцените раздачу и оставьте свои комментарий, если Вы скачали Байкеры 3 через торрент бесплатно!
    Комментировать посты могут только пользователи прошедшие не сложную регистрацию
    Показать сообщения:    

    Байкеры 3 через торрент
    Скачать бесплатно Байкеры 3
    Байкеры 3 скачать торрент
    Байкеры 3 смотреть онлайн
    Cкачать фильм Байкеры 3 бесплатно
    Байкеры 3 скачать торрент в хорошем качестве
    Байкеры 3 смотреть онлайн бесплатно в хорошем качестве


    Вы не можете начинать темы
    Вы не можете отвечать на сообщения
    Вы не можете редактировать свои сообщения
    Вы не можете удалять свои сообщения
    Вы не можете голосовать в опросах
    Вы не можете прикреплять файлы к сообщениям
    Вы можете скачивать файлы