1 сезон

3 сезон

iTunes

1

iTunes

DUB Netflix

iTunes

13

1 сезон

RePack

30

Deluxe

pack

Легкие деньги

ВАЖНО

ИГРА 18+

pack

RePack

MK11

RePack

jed

RePack

fifa19

RePack

RDR2

RePack

NEED FOR SPEED™ PAYBACK

4 сезон

9 сезон

Бесстыжие 9 сезон

Все сериалы

все сериалы на PB.wtf

RePack

FAR CRY 5

Anonymous, добрый вечер, мы не успеваем до 1 числа собрать деньги на оплату серверов, помогите нам пожалуйста в это трудное время. В качестве благодарности мы отключим Вам всю рекламу на сайте (укажите свой ник в строку Ваше имя)!

×
  
Magnet ссылка

Поворот не туда 3 / Wrong Turn 3: Left for Dead (Деклан О’Брайэн) [2009 г., ужасы, триллер, BDRip-AVC, Профессиональный (многоголосый)] freetor.icu

Поворот не туда 3 через торрент freetor.icu

Размер: 2.49 GB | Добавлен: 4 мес. 23 д. назад | Торрент скачан:8 раз
Скачать  

15-02-2018 14:30 Поворот не туда 3 Скачать торрент  

Поворот не туда 3 /
Wrong Turn 3: Left for Dead
Год выпуска: 2009
Страна: США, Германия
Жанр: ужасы, триллер
Продолжительность: 01:32:02
Перевод: Профессиональный (многоголосый закадровый) Лицензия
Субтитры: отсутствуют

Режиссер: Деклан О’Брайэн

Премьера в мире: 8 октября 2009

rating

В ролях: Том Фредерик, Джанет Монтгомери, Джил Колирин, Кристиан Райан Контрерас, Джэйк Каррен, Том МакКэй, Чуки Венис, Тамер Хассан, Джек Гордон, Луиз Клифф

Описание: Группа людей оказывается загнанной в ловушку, в лесах Западной Вирджинии, где они вынуждены бороться за свои жизни против группы порочных, и ужасно уродливых каннибалов.

Качество: BDRip-AVC
Формат: MKV
Видео кодек: H.264
Аудио кодек: AC3
Видео: AVC/H.264, 1024х576, ~3500 kbps
Аудио#1: Русский: AC3, 6 ch, 384 kbps - Профессиональный (многоголосый закадровый) Лицензия
Релиз от: winchester00100010
x264 [info]: profile Progressive High, level 4.1, 4:2:0, 8-bit
x264 [info]: frame I:1151 Avg QP:17.24 size: 89172 PSNR Mean Y:46.21 U:49.78 V:51.65 Avg:47.16 Global:46.51
x264 [info]: frame P:28248 Avg QP:19.62 size: 33877 PSNR Mean Y:43.83 U:49.25 V:51.30 Avg:44.94 Global:44.05
x264 [info]: frame B:103005 Avg QP:21.36 size: 13098 PSNR Mean Y:42.52 U:47.97 V:50.49 Avg:43.69 Global:42.80

Общее
Уникальный идентификатор : 198021230647724560918441264930524851932 (0x94F9807430192DF1A151E1D0365D6EDC)
Полное имя : D:\Мои раздачи и рипы\Поворот не туда Коллекция\Wrong.Turn.3.Left.for.Dead.2009.BDRip-AVC.mkv
Формат : Matroska
Версия формата : Version 2
Размер файла : 2,49 Гбайт
Продолжительность : 1 ч. 32 м.
Общий поток : 3 875 Кбит/сек
Дата кодирования : UTC 2021-01-20 16:08:53
Программа кодирования : mkvmerge v5.8.0 ('No Sleep / Pillow') built on Sep 2 2012 15:37:04
Библиотека кодирования : libebml v1.2.3 + libmatroska v1.3.0

Видео
Идентификатор : 1
Формат : AVC
Формат/Информация : Advanced Video Codec
Профиль формата : [email protected]
Настройки формата : CABAC / 12 Ref Frames
Параметр CABAC формата : Да
Параметр RefFrames формата : 12 кадров
Идентификатор кодека : V_MPEG4/ISO/AVC
Продолжительность : 1 ч. 32 м.
Битрейт : 3 500 Кбит/сек
Ширина : 1 024 пикселя
Высота : 576 пикселей
Соотношение сторон : 16:9
Режим частоты кадров : Постоянный
Частота кадров : 23,976 (24000/1001) кадра/сек
Цветовое пространство : YUV
Субдискретизация насыщенности : 4:2:0
Битовая глубина : 8 бит
Тип развёртки : Прогрессивная
Бит/(Пиксели*Кадры) : 0.247
Размер потока : 2,19 Гбайт (88%)
Библиотека кодирования : x264 core 157 r2969 d4099dd
Настройки программы : cabac=1 / ref=12 / deblock=1:-3:-3 / analyse=0x3:0x133 / me=umh / subme=9 / psy=1 / psy_rd=1.00:0.15 / mixed_ref=1 / me_range=32 / chroma_me=1 / trellis=2 / 8x8dct=1 / cqm=0 / deadzone=21,11 / fast_pskip=0 / chroma_qp_offset=-3 / threads=12 / lookahead_threads=2 / sliced_threads=0 / nr=0 / decimate=0 / interlaced=0 / bluray_compat=0 / constrained_intra=0 / bframes=6 / b_pyramid=2 / b_adapt=2 / b_bias=0 / direct=3 / weightb=1 / open_gop=0 / weightp=2 / keyint=240 / keyint_min=23 / scenecut=40 / intra_refresh=0 / rc_lookahead=40 / rc=2pass / mbtree=0 / bitrate=3500 / ratetol=1.0 / qcomp=0.60 / qpmin=0 / qpmax=69 / qpstep=4 / cplxblur=20.0 / qblur=0.5 / vbv_maxrate=50000 / vbv_bufsize=62500 / nal_hrd=none / filler=0 / ip_ratio=1.40 / pb_ratio=1.30 / aq=1:0.80
Язык : English
Default : Да
Forced : Нет
Duration_Source : General_Duration

Аудио
Идентификатор : 2
Формат : AC-3
Формат/Информация : Audio Coding 3
Коммерческое название : Dolby Digital
Идентификатор кодека : A_AC3
Продолжительность : 1 ч. 32 м.
Вид битрейта : Постоянный
Битрейт : 384 Кбит/сек
Каналы : 6 каналов
Channel layout : L R C LFE Ls Rs
Частота : 48,0 КГц
Частота кадров : 31,250 кадров/сек (1536 SPF)
Метод сжатия : С потерями
Размер потока : 253 Мбайт (10%)
Заголовок : Многоголосый закадровый (Лицензия)
Язык : Russian
Service kind : Complete Main
Default : Да
Forced : Нет
Duration_Source : General_Duration

freetor.icu



Скачать Поворот не туда 3 через торрент https://c.radikal.ru/c07/1802/e6/014d720edf01.jpg Скачать фильм Поворот не туда 3 через торрент бесплантно в хорошем качестве Описание: Группа людей оказывается загнанной в ловушку, в лесах Западной Вирджинии, где они вынуждены бороться за свои жизни против группы ... 10 10 2
Info! Золотая раздача, скачанное не засчитывается.
Торрент: Зарегистрирован [2021-01-20 17:57] · скачан: 8 раз
Статус: √ проверено
Размер: 2.49 GB
Как cкачать? Как скачать Поворот не туда 3 через торрент | UTorrent

% Раздел Тема Автор DL S | L
Фильмы (DVD фильмы) [ 4.24 GB ] Поворот не туда 3 / Wrong Turn 3: Left for Dead [2009 DVD5] DEVI Скачать
1 | 0
Фильмы 2009 [ 1.37 GB ] Поворот не туда 3 / Wrong Turn 3: Left for Dead [2009 DVDRip] DEVI Скачать
1 | 0


Последний раз редактировалось: winchester00100010 (2021-01-20 17:57), всего редактировалось 2 раз(а)

28-11-2019 20:33  

Отключить всю рекламу на сайте

28-02-2018 21:22 Поворот не туда 3 Скачать торрент  

Всем приятного просмотра)freetor.icu



20-01-2021 17:58 Поворот не туда 3 Скачать торрент  

Торрент обновлен в связи с тем что раздача была гиблой, всем скачавшим ранее перекачайте релиз торрент)freetor.icu



    Дорогой пользователь! Огромная просьба, поблагодарите релизера, оцените раздачу и оставьте свои комментарий, если Вы скачали Поворот не туда 3 через торрент бесплатно! Внесите свою лепту в развитие PiratBit!
    Комментировать посты могут только пользователи прошедшие не сложную регистрацию
    Показать сообщения:    

    Поворот не туда 3 через торрент
    Скачать бесплатно Поворот не туда 3
    Поворот не туда 3 скачать торрент
    Поворот не туда 3 смотреть онлайн
    Cкачать фильм Поворот не туда 3 бесплатно
    Поворот не туда 3 скачать торрент в хорошем качестве
    Поворот не туда 3 смотреть онлайн бесплатно в хорошем качестве


    Вы не можете начинать темы
    Вы не можете отвечать на сообщения
    Вы не можете редактировать свои сообщения
    Вы не можете удалять свои сообщения
    Вы не можете голосовать в опросах
    Вы не можете прикреплять файлы к сообщениям
    Вы можете скачивать файлы