Всегда рабочее зеркало без VPN и Proxy просто перед .vidak.icu напиши любое слово или цифру, Пример http://nkyr.vidak.icu

MVO

Лицензия

1 сезон

1

1 сезон

iTunes

1 сезон

13

1 сезон

Deluxe

pack

Рекомендуем

Пиратка

30

ВАЖНО

RePack

MK11

RePack

jed

RePack

fifa19

RePack

RDR2

RePack

NEED FOR SPEED™ PAYBACK

Кинопоиск HD

6 сезон

 Острые козырьки 6 сезон

Все сериалы

все сериалы на PB.wtf

RePack

FAR CRY 5

Anonymous, нам критически не хватает 2100 руб. на оплату серверов и переферии за МАЙ, помоги нам пожалуйста, вся надежда только на тебя. В благодарность мы отключим тебе всю рекламу на сайте!

×
  
Magnet ссылка

Эксперимент «Офис» 2 / Погром / Mayhem (Джо Линч) [2017, Ужасы, боевик, комедия, UHD BDRemux 2160p] MVO [Лицензия / iTunes] freetor.icu

Эксперимент «Офис» 2 через торрент freetor.icu

Качают: 1 [ 0 KB/s ]
Размер: 45.05 GB | Добавлен: 4 года 4 мес. назад | Торрент скачан:31 раз
Смотреть онлайн Эксперимент «Офис» 2 | Скачать    Ребята, помогите собрать деньги на оплату серверов!!!

10-02-2018 11:23 Эксперимент «Офис» 2 Скачать торрент  

Эксперимент «Офис» 2 / Погром / MayhemГод выпуска: 2017
Страна: США
Жанр: Ужасы, боевик, комедия
Продолжительность: 01:27:34
Перевод: Профессиональный многоголосый - [Лицензия / iTunes]
Субтитры: Английские, испанские, французские

Режиссер: Джо Линч

rating

В ролях:

Стивен Юн, Самара Уивинг, Стивен Брэнд, Кэролайн Чикези, Керри Фокс, Даллас Робертс, Марк Фрост, Клер Левин, Андре Эриксен, Никола Кент

Описание:

На человечество обрушился вирус ID7. Заражённые не могут себя контролировать. На 8 часов они оказываются во власти инстинктов: ярости, похоти, страха.
Дерек упорно работал, чтобы добиться высокого положения в крупной фирме. Босс его подставил и уволил с позором. Именно в этот момент в офис попадает вирус ID7. Прекрасный шанс оторваться и восстановить справедливость.

Качество: UHD BDRemux 2160p
Формат: MKV

Видео: 3840х2160p (16:9), 23.976 fps, AVC MPEG-4 (x265), [email protected] ~ 69.6 Mbps, 0.350 bit/pixel
Аудио#1: Русский 48 kHz, (AC3), 6 ch, ~ 384 kbps [Профессиональный (многоголосый, закадровый) iTunes]
Аудио#2: Английский 48 kHz, DTS-HD Master Audio, 6 ch, ~ 2048 kbps, 16-bit (DTS Core: 5.1 ch, 48 kHz, 1509 kbps, 16-bit) [Оригинал]
скриншот  скриншот  скриншот  скриншот  

Полное имя : Mayhem.2017.2160p.BluRay.REMUX.HEVC.DTS-HD.MA.5.1.mkv
Формат : Matroska
Версия формата : Version 4 / Version 2
Размер файла : 45,1 Гбайт
Продолжительность : 1 ч. 27 м.
Общий поток : 73,7 Мбит/сек
Дата кодирования : UTC 2018-02-06 17:01:59
Программа кодирования : mkvmerge v18.0.0 ('Apricity') 64-bit
Библиотека кодирования : libebml v1.3.5 + libmatroska v1.4.8

Видео
Идентификатор : 1
Формат : HEVC
Формат/Информация : High Efficiency Video Coding
Профиль формата : Main [email protected]@High
Идентификатор кодека : V_MPEGH/ISO/HEVC
Продолжительность : 1 ч. 27 м.
Битрейт : 69,6 Мбит/сек
Ширина : 3840 пикселей
Высота : 2160 пикселей
Соотношение сторон : 16:9
Режим частоты кадров : Постоянный
Частота кадров : 23,976 (24000/1001) кадра/сек
Цветовое пространство : YUV
Субдискретизация насыщенности : 4:2:0
Битовая глубина : 10 бит
Бит/(Пиксели*Кадры) : 0.350
Размер потока : 42,6 Гбайт (95%)
Default : Да
Forced : Нет
Цветовой диапазон : Limited
Основные цвета : BT.709
Характеристики трансфера : BT.709
Коэффициенты матрицы : BT.709

Аудио #1
Идентификатор : 2
Формат : AC-3
Формат/Информация : Audio Coding 3
Параметр Endianness формата : Big
Идентификатор кодека : A_AC3
Продолжительность : 1 ч. 27 м.
Вид битрейта : Постоянный
Битрейт : 384 Кбит/сек
Каналы : 6 каналов
Расположение каналов : Front: L C R, Side: L R, LFE
Частота : 48,0 КГц
Частота кадров : 31,250 кадров/сек (1536 SPF)
Битовая глубина : 16 бит
Метод сжатия : С потерями
Размер потока : 241 Мбайт (1%)
Заголовок : MVO | iTunes
Язык : Russian
ServiceKind/String : Complete Main
Default : Нет
Forced : Нет

Аудио #2
Идентификатор : 3
Формат : DTS
Формат/Информация : Digital Theater Systems
Профиль формата : MA / Core
Режим : 16
Параметр Endianness формата : Big
Идентификатор кодека : A_DTS
Продолжительность : 1 ч. 27 м.
Вид битрейта : Переменный / Постоянный
Битрейт : 2048 Кбит/сек / 1509 Кбит/сек
Каналы : 6 каналов
Расположение каналов : Front: L C R, Side: L R, LFE
Частота : 48,0 КГц
Частота кадров : 93,750 кадра/сек (512 SPF)
Битовая глубина : 24 бит
Метод сжатия : Без потерь / Lossy
Размер потока : 1,24 Гбайт (3%)
Язык : English
Default : Да
Forced : Нет

Текст #1
Идентификатор : 4
Формат : PGS
Режим смешивания : zlib
Идентификатор кодека : S_HDMV/PGS
Идентификатор кодека/Информация : Picture based subtitle format used on BDs/HD-DVDs
Продолжительность : 1 ч. 26 м.
Битрейт : 58,2 Кбит/сек
ElementCount : 3609
Размер потока : 36,1 Мбайт (0%)
Заголовок : English-PGS
Язык : English
Default : Да
Forced : Нет

Текст #2
Идентификатор : 5
Формат : PGS
Режим смешивания : zlib
Идентификатор кодека : S_HDMV/PGS
Идентификатор кодека/Информация : Picture based subtitle format used on BDs/HD-DVDs
Продолжительность : 1 ч. 22 м.
Битрейт : 49,0 Кбит/сек
ElementCount : 2537
Размер потока : 29,0 Мбайт (0%)
Заголовок : Spanish-PGS
Язык : Spanish
Default : Нет
Forced : Нет

Текст #3
Идентификатор : 6
Формат : PGS
Режим смешивания : zlib
Идентификатор кодека : S_HDMV/PGS
Идентификатор кодека/Информация : Picture based subtitle format used on BDs/HD-DVDs
Продолжительность : 1 ч. 22 м.
Битрейт : 55,6 Кбит/сек
ElementCount : 2619
Размер потока : 32,9 Мбайт (0%)
Заголовок : French-PGS
Язык : French
Default : Нет
Forced : Нет

Меню
00:00:00.000 : en:Chapter 1
00:10:06.188 : en:Chapter 2
00:19:52.566 : en:Chapter 3
00:34:24.896 : en:Chapter 4
00:39:10.222 : en:Chapter 5
00:56:05.278 : en:Chapter 6
01:04:28.572 : en:Chapter 7
01:13:04.838 : en:Chapter 8
01:18:07.974 : en:Chapter 9
01:23:36.428 : en:Chapter 10

freetor.icu



Скачать Эксперимент «Офис» 2 через торрент http://img12.lostpic.net/2018/02/10/3412df11f6534003142a40f63bfc5d83.jpg Скачать, смотреть онлайн Эксперимент «Офис» 2 бесплантно в хорошем качестве Описание: На человечество обрушился вирус ID Заражённые не могут себя контролировать. На 8 часов они оказываются во власти инстинктов: ... 10 10 3
Торрент: Зарегистрирован [2018-02-10 11:23] · скачан: 31 раз
Статус: √ проверено
Размер: 45.05 GB
Как cкачать? Как скачать Эксперимент «Офис» 2 через торрент | UTorrent

% Раздел Тема Автор DL S | L
Фильмы 2017 [DVDrip, WEB-DLRip, HDrip] (DUB, MVO) [ 1.42 GB ] Эксперимент «Офис» 2 / Погром / Mayhem [2017 BDRip] MVO Twi7ter Скачать
1 | 0
Фильмы [HD 720p, 1080p] (Хороший звук DUB, MVO) [ 5.49 GB ] Эксперимент «Офис» 2 / Погром / Mayhem [2017 BDRip 1080p] MVO bober100 Скачать
1 | 0
Фильмы [HD 720p, 1080p] (Хороший звук DUB, MVO) [ 4.8 GB ] Эксперимент «Офис» 2 / Погром / Mayhem [2017 BDRip 720p] MVO bober100 Скачать
1 | 0
Фильмы 2017 [DVDrip, WEB-DLRip, HDrip] (DUB, MVO) [ 1.42 GB ] Эксперимент «Офис» 2 / Погром / Mayhem [2017 BDRip] MVO bober100 Скачать
1 | 0
Фильмы (Blu-ray, BD-Remux, HDDVD) [ 15.45 GB ] Эксперимент «Офис» 2 / Погром / Mayhem [2017 BD Remux 1080p] MVO bober100 Скачать
1 | 0
Фильмы 2017 [DVDrip, WEB-DLRip, HDrip] (DUB, MVO) [ 1.53 GB ] Эксперимент «Офис» 2 / Погром / Mayhem [2017 BDRip-AVC] MVO - ExKinoRay Enigma2010 Скачать
1 | 0

28-11-2019 20:33  

Отключить всю рекламу на сайте

    Дорогой пользователь! Огромная просьба, поблагодарите релизера, оцените раздачу и оставьте свои комментарий, если Вы скачали Эксперимент «Офис» 2 через торрент бесплатно!
    Комментировать посты могут только пользователи прошедшие не сложную регистрацию
    Показать сообщения:    

    Эксперимент «Офис» 2 через торрент
    Скачать бесплатно Эксперимент «Офис» 2
    Эксперимент «Офис» 2 скачать торрент
    Эксперимент «Офис» 2 смотреть онлайн
    Cкачать фильм Эксперимент «Офис» 2 бесплатно
    Эксперимент «Офис» 2 скачать торрент в хорошем качестве
    Эксперимент «Офис» 2 смотреть онлайн бесплатно в хорошем качестве


    Вы не можете начинать темы
    Вы не можете отвечать на сообщения
    Вы не можете редактировать свои сообщения
    Вы не можете удалять свои сообщения
    Вы не можете голосовать в опросах
    Вы не можете прикреплять файлы к сообщениям
    Вы можете скачивать файлы