Всегда рабочее зеркало без VPN и Proxy просто перед .vidak.icu напиши любое слово или цифру, Пример http://dqet.vidak.icu

MVO

Лицензия

1 сезон

1

1 сезон

iTunes

1 сезон

13

1 сезон

Deluxe

pack

Рекомендуем

Пиратка

30

ВАЖНО

RePack

MK11

RePack

jed

RePack

fifa19

RePack

RDR2

RePack

NEED FOR SPEED™ PAYBACK

Кинопоиск HD

6 сезон

 Острые козырьки 6 сезон

Все сериалы

все сериалы на PB.wtf

RePack

FAR CRY 5

Anonymous, нам критически не хватает 2100 руб. на оплату серверов и переферии за МАЙ, помоги нам пожалуйста, вся надежда только на тебя. В благодарность мы отключим тебе всю рекламу на сайте!

×
  
Magnet ссылка

Восставший / Risen (Кевин Рейнольдс) [2016, Боевик, драма, детектив, приключения, UHD BDRemux 2160p] MVO [Лицензия] freetor.icu

Восставший через торрент freetor.icu

Размер: 47.47 GB | Добавлен: 4 года 6 мес. назад | Торрент скачан:43 раза
Смотреть онлайн Восставший | Скачать    Ребята, помогите собрать деньги на оплату серверов!!!

17-12-2017 18:11 Восставший Скачать торрент  

Восставший / RisenГод выпуска: 2016
Страна: США
Жанр: Боевик, драма, детектив, приключения
Продолжительность: 01:47:36
Перевод: Профессиональный многоголосый (закадровый) | Лицензия
Субтитры: Русские (full), английские

Режиссер: Кевин Рейнольдс

rating

В ролях:

Джозеф Файнс, Том Фелтон, Питер Фёрт, Клифф Кёртис, Мария Ботто, Луис Кальехо, Антонио Хиль-Мартинес, Ричард Этуилл, Марк Киллин, Стюарт Скудамор

Описание:

В картине пойдет речь о первых 40 днях, последовавших вслед за воскресением Христа. Основным персонажем станет атеистически настроенный римский центурион, которого прокуратор Иудеи, Понтий Пилат, посылает разузнать с чем связаны слухи о воскресении Христа, а также попытаться отыскать тело этого новоявленного мессии.

Качество: UHD BDRemux 2160p
Формат: MKV
Видео кодек: HEVC
Аудио кодек: AC3/TrueHD

Видео: MPEG-H HEVC HDR Video, 3840x2160, 57.6 Mbit/s, 23.976 fps
Аудио#1: 48 kHz, AC3, 5.1, 640 Kbps | Профессиональный многоголосый (закадровый) |
Аудио#2: 48 kHz, TrueHD, 7.1, 4249 kbps | Оригинал |
Аудио#3: 48 kHz, AC3, 5.1, 640 kbps | Оригинал |

Релиз от:
скриншот  скриншот  скриншот  скриншот  скриншот  

скриншот  скриншот  скриншот  скриншот  

General
Unique ID : 236591103247574979159242587323537013766 (0xB1FDC9FE007DAFBE89319CD2996BBC06)
Complete name : G:VideoSSDRisen.2016.BDREMUX.2160p.4K.UltraHD.HEVC.HDR.ExKinoRay.mkv
Format : Matroska
Format version : Version 4 / Version 2
File size : 47.5 GiB
Duration : 1 h 47 min
Overall bit rate mode : Variable
Overall bit rate : 63.1 Mb/s
Movie name : Risen 2016 from ExKinoRay
Encoded date : UTC 2017-12-17 16:43:07
Writing application : mkvmerge v18.0.0 ('Apricity') 64-bit
Writing library : libebml v1.3.5 + libmatroska v1.4.8

Video
ID : 1
Format : HEVC
Format/Info : High Efficiency Video Coding
Format profile : Main [email protected]@High
Codec ID : V_MPEGH/ISO/HEVC
Duration : 1 h 47 min
Bit rate : 57.6 Mb/s
Width : 3 840 pixels
Height : 2 160 pixels
Display aspect ratio : 16:9
Frame rate mode : Constant
Frame rate : 23.976 (24000/1001) FPS
Color space : YUV
Chroma subsampling : 4:2:0 (Type 2)
Bit depth : 10 bits
Bits/(Pixel*Frame) : 0.289
Stream size : 43.3 GiB (91%)
Language : English
Default : Yes
Forced : No
Color range : Limited
Color primaries : BT.2020
Transfer characteristics : PQ
Matrix coefficients : BT.2020 non-constant
Mastering display color pri : R: x=0.680000 y=0.320000, G: x=0.265000 y=0.690000, B: x=0.150000 y=0.060000, White point: x=0.312700 y=0.329000
Mastering display luminance : min: 0.0050 cd/m2, max: 4000.0000 cd/m2
Maximum Content Light Level : 1085 cd/m2
Maximum Frame-Average Light : 669 cd/m2

Audio #1
ID : 2
Format : AC-3
Format/Info : Audio Coding 3
Format settings, Endianness : Big
Codec ID : A_AC3
Duration : 1 h 47 min
Bit rate mode : Constant
Bit rate : 640 kb/s
Channel(s) : 6 channels
Channel positions : Front: L C R, Side: L R, LFE
Sampling rate : 48.0 kHz
Frame rate : 31.250 FPS (1536 SPF)
Bit depth : 16 bits
Compression mode : Lossy
Stream size : 493 MiB (1%)
Title : MVO [License]
Language : Russian
Service kind : Complete Main
Default : Yes
Forced : No

Audio #2
ID : 3
Format : TrueHD
Format profile : TrueHD+Atmos / TrueHD
Codec ID : A_TRUEHD
Duration : 1 h 47 min
Bit rate mode : Variable
Bit rate : 4 249 kb/s
Maximum bit rate : 7 500 kb/s
Channel(s) : Object Based / 8 channels
Channel positions : Object Based / Front: L C R, Side: L R, Back: L R, LFE
Sampling rate : / 48.0 kHz
Frame rate : 1 200.000 FPS (40 SPF)
Compression mode : Lossless
Stream size : 3.19 GiB (7%)
Title : Original
Language : English
Default : No
Forced : No

Audio #3
ID : 4
Format : AC-3
Format/Info : Audio Coding 3
Format settings, Endianness : Big
Codec ID : A_AC3
Duration : 1 h 47 min
Bit rate mode : Constant
Bit rate : 640 kb/s
Channel(s) : 6 channels
Channel positions : Front: L C R, Side: L R, LFE
Sampling rate : 48.0 kHz
Frame rate : 31.250 FPS (1536 SPF)
Bit depth : 16 bits
Compression mode : Lossy
Stream size : 493 MiB (1%)
Language : English
Service kind : Complete Main
Default : No
Forced : No

Text #1
ID : 5
Format : UTF-8
Codec ID : S_TEXT/UTF8
Codec ID/Info : UTF-8 Plain Text
Duration : 1 h 38 min
Bit rate : 61 b/s
Count of elements : 902
Stream size : 44.5 KiB (0%)
Title : Full
Language : Russian
Default : No
Forced : No

Text #2
ID : 6
Format : UTF-8
Codec ID : S_TEXT/UTF8
Codec ID/Info : UTF-8 Plain Text
Duration : 1 h 36 min
Bit rate : 37 b/s
Count of elements : 989
Stream size : 26.5 KiB (0%)
Title : Full
Language : English
Default : No
Forced : No

Text #3
ID : 7
Format : UTF-8
Codec ID : S_TEXT/UTF8
Codec ID/Info : UTF-8 Plain Text
Duration : 1 h 38 min
Bit rate : 44 b/s
Count of elements : 1238
Stream size : 31.8 KiB (0%)
Title : SDH
Language : English
Default : No
Forced : No

Menu
00:00:00.000 : en:00:00:00.000
00:06:50.243 : en:00:06:50.243
00:14:18.733 : en:00:14:18.733
00:21:48.182 : en:00:21:48.182
00:27:35.195 : en:00:27:35.195
00:33:21.082 : en:00:33:21.082
00:40:03.985 : en:00:40:03.985
00:46:19.193 : en:00:46:19.193
00:54:06.243 : en:00:54:06.243
01:00:06.478 : en:01:00:06.478
01:07:53.027 : en:01:07:53.027
01:13:54.847 : en:01:13:54.847
01:19:46.657 : en:01:19:46.657
01:25:42.387 : en:01:25:42.387
01:33:16.132 : en:01:33:16.132
01:38:41.833 : en:01:38:41.833

freetor.icu



Скачать Восставший через торрент http://s020.radikal.ru/i711/1712/70/a7d07b61b947.jpg Скачать, смотреть онлайн Восставший бесплантно в хорошем качестве Описание: В картине пойдет речь о первых 40 днях, последовавших вслед за воскресением Христа. Основным персонажем станет атеистически ... 10 10 2
Info! Золотая раздача, скачанное не засчитывается.
Торрент: Зарегистрирован [2017-12-17 18:11] · скачан: 43 раз
Статус: √ проверено
Размер: 47.47 GB
Как cкачать? Как скачать Восставший через торрент | UTorrent

% Раздел Тема Автор DL S | L
Ultra HD (UHD: 2K, 4K, 8K) — видео сверхвысокой чёткости [ 58.47 GB ] Восставший / Risen [2016 UHD Blu-ray 2160p] AVO [А.Дасевич] +DUB +MVO [] bober100 Скачать
1 | 0
Фильмы 2016 [DVDrip, WEB-DLRip, HDrip] (DUB, MVO) [ 1.46 GB ] Восставший / Risen [2016 BDRip] [] Twi7ter Скачать
1 | 0
Фильмы 2016 [DVDrip, WEB-DLRip, HDrip] (DUB, MVO) [ 2.19 GB ] Восставший / Воскресение Христа / Risen [2016 HDRip многоголосый закадровый "BD CEE"] coc900 Скачать
1 | 0
Фильмы (Blu-ray, BD-Remux, HDDVD) [ 32 GB ] Восставший / Risen [2016 Blu-Ray CEE] Russian Mafia Скачать
1 | 0
Фильмы 2016 [DVDrip, WEB-DLRip, HDrip] (DUB, MVO) [ 2.13 GB ] Восставший / Risen [2016 BDRip-AVC] MVO potroks Скачать
1 | 0
Фильмы (Blu-ray, BD-Remux, HDDVD) [ 20.65 GB ] Восставший / Risen [2016 BDRemux 1080p] от ExKinoRay / Russian Mafia Скачать
1 | 0
Фильмы 2016 [DVDrip, WEB-DLRip, HDrip] (DUB, MVO) [ 1.41 GB ] Восставший / Risen [2016 BDRip-AVC] MVO potroks Скачать
1 | 0

28-11-2019 20:33  

Отключить всю рекламу на сайте

    Дорогой пользователь! Огромная просьба, поблагодарите релизера, оцените раздачу и оставьте свои комментарий, если Вы скачали Восставший через торрент бесплатно!
    Комментировать посты могут только пользователи прошедшие не сложную регистрацию
    Показать сообщения:    

    Восставший через торрент
    Скачать бесплатно Восставший
    Восставший скачать торрент
    Восставший смотреть онлайн
    Cкачать фильм Восставший бесплатно
    Восставший скачать торрент в хорошем качестве
    Восставший смотреть онлайн бесплатно в хорошем качестве


    Вы не можете начинать темы
    Вы не можете отвечать на сообщения
    Вы не можете редактировать свои сообщения
    Вы не можете удалять свои сообщения
    Вы не можете голосовать в опросах
    Вы не можете прикреплять файлы к сообщениям
    Вы можете скачивать файлы