>

8.4

Хороший звук

6.1

MVO

6.4

Line & MVO

1

7.4

1 сезон

6.8

iTunes

7.2

1 сезон

13

6.7

1 сезон

8.3

RePack

30

Deluxe

pack

9.9

Лицензия

ВАЖНО

ИГРА 18+

pack

7.3

RePack

MK11

7.7

RePack

jed

7.8

RePack

fifa19

8.5

RePack

RDR2

RePack

NEED FOR SPEED™ PAYBACK

4 сезон

9 сезон

Бесстыжие 9 сезон

Все сериалы

все сериалы на PB.wtf

RePack

FAR CRY 5

Anonymous, доброе утро, мы катастрофически не успеваем собрать деньги на оплату серверов, помогите нам пожалуйста 5,10,15р., для нас важна любая помощь . В качестве благодарности мы отключим Вам всю рекламу на сайте (укажите свой ник в строку Ваше имя)!

×
  
Magnet ссылка

Бахубали: Завершение / Bahubali 2: The Conclusion [2017, Фэнтези, боевик, драма, BDRip-AVC] MVO - ExKinoRay freetor.icu

Бахубали: Завершение через торрент freetor.icu

Размер: 3.68 GB | Добавлен: 3 года 11 мес. назад | Торрент скачан:371 раз
Смотреть онлайн Бахубали: Завершение | Скачать    Ребята, помогите собрать деньги на оплату серверов!!!

06-09-2017 15:35 Бахубали: Завершение Скачать торрент  

Информация о фильме
Название: Бахубали: Завершение
Оригинальное название: Bahubali 2: The Conclusion
Год выпуска: 2017
Жанр: Фэнтези, боевик, драма, приключения
Выпущено: Индия, Arka Mediaworks, Beyond Studio Entertainments VFX
Продолжительность: 02:46:49
Перевод: Любительский (многоголосый, закадровый)
Примечание: Релиз без рекламы
Субтитры: Русские (2 х на песни (Enigma (с хинди), Honey&Haseena (с тамили)), русские (полные (Enigma)), английские (полные)
Режиссер: С.С. Раджамули
В ролях: Прабхас, Рана Даггубати, Анушка Шетти, Таманна Бхатия, Сатхьярадж, Рамья Кришна, Нассер, Суббараджу

Описание: Старый Каттаппа рассказывает Шиве, почему убил его отца Амарендру. После того, как тот был усыновлён королевой Шивагами, старший сводный брат Бхаллаладева всегда ему завидовал. Зависть достигла апогея после битвы с дикими племенами, когда Шивагами нарекла младшего сына наследником королевства. Бхаллаладева и его хитрый отец начинают плести грязные интриги, чтобы сжить Амарендру со свету.




Файл
Формат: MKV
Качество: BDRip-AVC
Видео: AVC, 1024х428 (2.40:1), 2520 kbps, 24,000 fps, 0,240 bpp
Аудио 1: AC-3, 48.0 KHz, 2.0 ch, 192 Kbps, CBR (Russian)
Аудио 2: AC-3, 48.0 KHz, 5.1 ch, 448 Kbps, CBR (Hindi)


Озвучка: Денис Строев, Давид Петросян, Константин Федосеев, Левша Фёрст и Маргарита Сахно
Перевод и редакция: ❖ Honey&Haseena ❖
Звукорежиссёр: Михаил Шорыгин

Язык оригинальной дорожки Тамили
Фильм переведён и озвучен по специальному заказу Селены Шелестовой


Навигация по главам: Есть
General
Unique ID : 213337297104290221169323045377393607358 (0xA07F44D4FA3E0AD7AC03C3A6B904C2BE)
Complete name : D:\Bahubali.2.The Conclusion.2017.MVO.BDRip.AVC.ExKinoRay.mkv
Format : Matroska
Format version : Version 2
File size : 3.68 GiB
Duration : 2 h 46 min
Overall bit rate : 3 162 kb/s
Movie name : Bahubali 2 (2017) from ExKinoRay
Encoded date : UTC 2017-09-24 17:44:05
Writing application : mkvmerge v5.6.0 ('Kenya Kane') built on May 27 2012 16:44:04
Writing library : libebml v1.2.3 + libmatroska v1.3.0

Video
ID : 1
Format : AVC
Format/Info : Advanced Video Codec
Format profile : High@L4.1
Format settings, CABAC : Yes
Format settings, ReFrames : 11 frames
Codec ID : V_MPEG4/ISO/AVC
Duration : 2 h 46 min
Bit rate : 2 520 kb/s
Width : 1 024 pixels
Height : 428 pixels
Display aspect ratio : 2.40:1
Frame rate mode : Constant
Frame rate : 24.000 FPS
Color space : YUV
Chroma subsampling : 4:2:0
Bit depth : 8 bits
Scan type : Progressive
Bits/(Pixel*Frame) : 0.240
Stream size : 2.87 GiB (78%)
Title : Enigma
Writing library : x264 core 144 r2525 40bb568
Encoding settings : cabac=1 / ref=11 / deblock=1:-3:-3 / analyse=0x3:0x113 / me=umh / subme=10 / psy=1 / psy_rd=1.00:0.00 / mixed_ref=1 / me_range=32 / chroma_me=1 / trellis=2 / 8x8dct=1 / cqm=0 / deadzone=21,11 / fast_pskip=1 / chroma_qp_offset=-2 / threads=12 / lookahead_threads=3 / sliced_threads=0 / nr=0 / decimate=0 / interlaced=0 / bluray_compat=0 / constrained_intra=0 / bframes=11 / b_pyramid=2 / b_adapt=2 / b_bias=0 / direct=3 / weightb=1 / open_gop=0 / weightp=2 / keyint=240 / keyint_min=24 / scenecut=40 / intra_refresh=0 / rc_lookahead=40 / rc=2pass / mbtree=0 / bitrate=2520 / ratetol=1.0 / qcomp=0.60 / qpmin=0 / qpmax=51 / qpstep=4 / cplxblur=20.0 / qblur=0.5 / vbv_maxrate=50000 / vbv_bufsize=62500 / nal_hrd=none / filler=0 / ip_ratio=1.40 / pb_ratio=1.30 / aq=1:0.90
Language : English
Default : Yes
Forced : No

Audio #1
ID : 2
Format : AC-3
Format/Info : Audio Coding 3
Mode extension : CM (complete main)
Format settings, Endianness : Big
Codec ID : A_AC3
Duration : 2 h 46 min
Bit rate mode : Constant
Bit rate : 192 kb/s
Channel(s) : 2 channels
Channel positions : Front: L R
Sampling rate : 48.0 kHz
Frame rate : 31.250 FPS (1536 spf)
Compression mode : Lossy
Stream size : 229 MiB (6%)
Title : MVO
Language : Russian
Default : Yes
Forced : Yes

Audio #2
ID : 3
Format : AC-3
Format/Info : Audio Coding 3
Mode extension : CM (complete main)
Format settings, Endianness : Big
Codec ID : A_AC3
Duration : 2 h 46 min
Bit rate mode : Constant
Bit rate : 448 kb/s
Channel(s) : 6 channels
Channel positions : Front: L C R, Side: L R, LFE
Sampling rate : 48.0 kHz
Frame rate : 31.250 FPS (1536 spf)
Compression mode : Lossy
Stream size : 535 MiB (14%)
Title : Dub
Language : Hindi
Default : No
Forced : No

Text #1
ID : 4
Format : UTF-8
Codec ID : S_TEXT/UTF8
Codec ID/Info : UTF-8 Plain Text
Title : Forced (songs+end) Enigma
Language : Russian
Default : Yes
Forced : Yes

Text #2
ID : 5
Format : UTF-8
Codec ID : S_TEXT/UTF8
Codec ID/Info : UTF-8 Plain Text
Title : (songs) Honey&Haseena
Language : Russian
Default : No
Forced : No

Text #3
ID : 6
Format : UTF-8
Codec ID : S_TEXT/UTF8
Codec ID/Info : UTF-8 Plain Text
Title : Full (Enigma)
Language : Russian
Default : No
Forced : No

Text #4
ID : 7
Format : UTF-8
Codec ID : S_TEXT/UTF8
Codec ID/Info : UTF-8 Plain Text
Language : English
Default : No
Forced : No

Menu
00:00:00.000 : en:Chapter 1
00:02:42.375 : en:Chapter 2
00:05:11.458 : en:Chapter 3
00:08:24.458 : en:Chapter 4
00:16:41.541 : en:Chapter 5
00:30:31.791 : en:Chapter 6
00:39:21.791 : en:Chapter 7
00:42:57.500 : en:Chapter 8
00:46:24.541 : en:Chapter 9
00:51:02.416 : en:Chapter 10
01:07:36.416 : en:Chapter 11
01:11:51.041 : en:Chapter 12
01:18:27.875 : en:Chapter 13
01:27:20.000 : en:Chapter 14
01:38:15.333 : en:Chapter 15
01:43:27.416 : en:Chapter 16
01:51:08.166 : en:Chapter 17
02:01:31.000 : en:Chapter 18
02:13:27.833 : en:Chapter 19
02:39:25.250 : en:Chapter 20
Релиз от:

Автор релиза: freetor.icu



Скачать Бахубали: Завершение через торрент http://s019.radikal.ru/i637/1706/6c/ac07d87f58c8.jpg Скачать, смотреть онлайн Бахубали: Завершение бесплантно в хорошем качестве Описание: Старый Каттаппа рассказывает Шиве, почему убил его отца Амарендру. После того, как тот был усыновлён королевой Шивагами, старший ... 9.2 10 18
Info! Золотая раздача, скачанное не засчитывается.
Торрент: Зарегистрирован [2017-09-24 18:38] · скачан: 371 раз
Статус: √ проверено
Размер: 3.68 GB
Как cкачать? Как скачать Бахубали: Завершение через торрент | UTorrent

% Раздел Тема Автор DL S | L
Индийское кино [ 2.06 GB ] Бахубали: Завершение / Bahubali 2: The Conclusion [2017 BDRip] MVO - ExKinoRay Enigma2010 Скачать
1 | 0


Последний раз редактировалось: Enigma2010 (2017-09-24 18:38), всего редактировалось 2 раз(а)

28-11-2019 20:33  

Отключить всю рекламу на сайте

06-09-2017 15:43 Бахубали: Завершение Скачать торрент  

Пока прочитал описание,опух..Жесть..freetor.icu



06-09-2017 15:55 Бахубали: Завершение Скачать торрент  

Побухали: Завершение ! freetor.icu



06-09-2017 15:57 Бахубали: Завершение Скачать торрент  

freetor.icu



06-09-2017 17:23 Бахубали: Завершение Скачать торрент  

Если все уже в ажуре, то можете и кино посмотреть. Я вам еще в формате ави залила для полного счастья ) freetor.icu



24-09-2017 18:40 Бахубали: Завершение Скачать торрент  

Замена русской дорожки (полностью переработана и заново синхронизирована профессиональной группой "Переулок Переводмана"). Добавлены полные русские субтитры, допереведены песни и финальная сцена.freetor.icu



24-09-2017 21:06 Бахубали: Завершение Скачать торрент  

О!!! Большое спасибо!!! Очень ждал сие творение Болливуда!
П.С. А что скрины не открываются?freetor.icu



17-11-2017 17:51 Бахубали: Завершение Скачать торрент  

Vyacheslav10 писал(а):

О!!! Большое спасибо!!! Очень ждал сие творение Болливуда!
П.С. А что скрины не открываются?

Поддерживаю. Первая часть показала уровень мастерства операторов и монтажёров. Хоть фильм и схож местами пародийностью Голливуда, богат фарсом (фольклором) - у нас может бытовать такое впечатление; {но китайские фэнтези мы не воспринимаем ведь как строго исторически выверенные, - лишь наслаждаемся видами и постановками}, а там (в Болливуде) сразу видно, что серьезность зашкаливает, а сам фильм понравится каждому, обладающему открытым разумом, временем и настроением хорошо провести след. 2,5 часа с удовольствием.

Советую первую к просмотру, вторую заценить еще надо.

Спс за раздачу freetor.icu



11-02-2018 17:34 Бахубали: Завершение Скачать торрент  

Побухали:Отвращение.freetor.icu



    Дорогой пользователь! Огромная просьба, поблагодарите релизера, оцените раздачу и оставьте свои комментарий, если Вы скачали Бахубали: Завершение через торрент бесплатно!
    Комментировать посты могут только пользователи прошедшие не сложную регистрацию
    Показать сообщения:    

    Бахубали: Завершение через торрент
    Скачать бесплатно Бахубали: Завершение
    Бахубали: Завершение скачать торрент
    Бахубали: Завершение смотреть онлайн
    Cкачать фильм Бахубали: Завершение бесплатно
    Бахубали: Завершение скачать торрент в хорошем качестве
    Бахубали: Завершение смотреть онлайн бесплатно в хорошем качестве


    Вы не можете начинать темы
    Вы не можете отвечать на сообщения
    Вы не можете редактировать свои сообщения
    Вы не можете удалять свои сообщения
    Вы не можете голосовать в опросах
    Вы не можете прикреплять файлы к сообщениям
    Вы можете скачивать файлы