>

5.6

iTunes

6.1

MVO

5.7

MVO

1

7.4

1 сезон

6.8

iTunes

7.2

1 сезон

13

6.7

1 сезон

8.3

RePack

30

Deluxe

pack

9.9

Лицензия

ВАЖНО

ИГРА 18+

pack

7.3

RePack

MK11

7.7

RePack

jed

7.8

RePack

fifa19

8.5

RePack

RDR2

RePack

NEED FOR SPEED™ PAYBACK

4 сезон

9 сезон

Бесстыжие 9 сезон

Все сериалы

все сериалы на PB.wtf

RePack

FAR CRY 5

Anonymous, добрый день, мы катастрофически не успеваем собрать деньги на оплату серверов, помогите нам пожалуйста 5,10,15р., для нас важна любая помощь . В качестве благодарности мы отключим Вам всю рекламу на сайте (укажите свой ник в строку Ваше имя)!

×
  
Magnet ссылка

Доспехи бога: В поисках сокровищ / Gong Fu Yu Jia (Стэнли Тун) [2017 г., Боевик, комедия, детектив, приключения, HDRip, Дубляж "BD RUS"] freetor.icu

Доспехи бога: В поисках сокровищ через торрент freetor.icu

Размер: 2.15 GB | Добавлен: 4 года 1 мес. назад | Торрент скачан:108 раз
Смотреть онлайн Доспехи бога: В поисках сокровищ | Скачать    Ребята, помогите собрать деньги на оплату серверов!!!

02-08-2017 18:27 Доспехи бога: В поисках сокровищ Скачать торрент  

Доспехи бога: В поисках сокровищ / Gong Fu Yu Jia
Год выпуска: 2017
Страна: Индия, Китай / СПАМ Roll Media, Shanghai Taihe Pictures, Taihe Entertainment
Жанр: Боевик, комедия, детектив, приключения
Продолжительность: 01:47:00
Перевод: Дубляж (BD RUS)

Режиссер: Стэнли Тун

rating

В ролях: Джеки Чан, Аариф Ли, Исин Чжан, Сону Суд, Мия Муци, Диша Патани, Амира Дастур, Чжан Голи, Ху Мин, Эрик Цан, Фатих Угурлу, Дэмиэн Мевис, Кевин Ли, Томер Оз, Пол Филип Кларк, Эскиндир Тесфай

Описание: Профессора археологии Джека Си ждет по-настоящему увлекательное приключение. Нужно разгадать массу загадок и найти несметные сокровища древнего королевства. За самым большим кладом в истории охотится еще и могущественный преступный синдикат. Джеку вместе с командой предстоит проявить умения и смекалку, и завоевать сердце принцессы.

Качество: HDRip
Формат: AVI
Видео кодек: XviD
Аудио кодек: AC3
Видео: 720x304 (2.37:1), 24.000 fps, XviD build 50 ~2422 kbps avg, 0.46 bit/pixel
Аудио: 48 kHz, AC3 Dolby Digital, 3/2 (L,C,R,l,r) LFE ch, ~448 kbps
скриншот   скриншот   скриншот   скриншот   скриншот   скриншот   скриншот   скриншот  

Общее
Полное имя : F:\ФИЛЬМЫ\Доспехи бога. В поисках сокровищ.2017.D.HDRip.avi
Формат : AVI
Формат/Информация : Audio Video Interleave
Профиль формата : OpenDML
Размер файла : 2,15 Гбайт
Продолжительность : 1 ч. 47 м.
Общий поток : 2877 Кбит/сек
Программа кодирования : VirtualDubMod 1.5.10.3 | www.virtualdub-fr.org || (build 2550/release)
Библиотека кодирования : VirtualDubMod build 2550/release

Видео
Идентификатор : 0
Формат : MPEG-4 Visual
Профиль формата : Advanced Simple@L5
Параметр BVOP формата : 1
Параметр QPel формата : Нет
Параметр GMC формата : Без точки перехода
Параметр матрицы формата : Default (MPEG)
Идентификатор кодека : XVID
Идентификатор кодека/Подсказка : XviD
Продолжительность : 1 ч. 47 м.
Битрейт : 2417 Кбит/сек
Ширина : 720 пикселей
Высота : 304 пикселя
Соотношение сторон : 2,35:1
Частота кадров : 24,000 кадра/сек
Цветовое пространство : YUV
Субдискретизация насыщенности : 4:2:0
Битовая глубина : 8 бит
Тип развёртки : Прогрессивная
Метод сжатия : С потерями
Бит/(Пиксели*Кадры) : 0.460
Размер потока : 1,81 Гбайт (84%)
Библиотека кодирования : XviD 1.2.1 (UTC 2008-12-04)

Аудио
Идентификатор : 1
Формат : AC-3
Формат/Информация : Audio Coding 3
Параметр Endianness формата : Big
Идентификатор кодека : 2000
Продолжительность : 1 ч. 47 м.
Вид битрейта : Постоянный
Битрейт : 448 Кбит/сек
Каналы : 6 каналов
Расположение каналов : Front: L C R, Side: L R, LFE
Частота : 48,0 КГц
Частота кадров : 31,250 кадров/сек (1536 SPF)
Битовая глубина : 16 бит
Метод сжатия : С потерями
Размер потока : 343 Мбайт (16%)
Выравнивание : Разделение по промежуткам
Продолжительность промежутка : 42 мс. (1,00 видеокадр)
Время предзагрузки промежутка : 500 мс.
ServiceKind/String : Complete Main

freetor.icu



Скачать Доспехи бога: В поисках сокровищ через торрент https://pic1.kartinco.top/images/11/nxx49.jpg Скачать, смотреть онлайн Доспехи бога: В поисках сокровищ бесплантно в хорошем качестве Описание: Профессора археологии Джека Си ждет по-настоящему увлекательное . Нужно разгадать массу загадок и найти несметные ... 8.8 10 4
Торрент: Зарегистрирован [2017-08-02 18:27] · скачан: 108 раз
Статус: √ проверено
Размер: 2.15 GB
Как cкачать? Как скачать Доспехи бога: В поисках сокровищ через торрент | UTorrent

% Раздел Тема Автор DL S | L
Индийское кино [ 4.37 GB ] Доспехи бога: В поисках сокровищ / Gong fu yu jia [2017 BDRip 720p] potroks Скачать
2 | 0
Индийское кино [ 1.46 GB ] Доспехи бога: В поисках сокровищ / Kung-Fu Yoga / Gong Fu Yu Jia [2017 BDRip] - [] Twi7ter Скачать
1 | 0
Индийское кино [ 2.5 GB ] Доспехи бога: В поисках сокровищ / Kung-Fu Yoga / Gong fu yu jia [2017 BDRip-AVC] DUB [] bober100 Скачать
1 | 0
Индийское кино [ 10.83 GB ] Доспехи бога: В поисках сокровищ / Kung-Fu Yoga / Gong fu yu jia [2017 BDRip 1080p] DUB [] bober100 Скачать
1 | 0
R.G. Resident & PiratVoice - Фильмы, Видео [ 1.46 GB ] Доспехи бога: В поисках сокровищ / Kung-Fu Yoga / Gong fu yu jia [2017 BDRip от R.G. Resident] -Lexx- Скачать
2 | 0
Индийское кино [ 745 MB ] Доспехи бога: В поисках сокровищ / Kung-Fu Yoga / Gong Fu Yu Jia [2017 HDRip] bober100 Скачать
1 | 0
R.G. Resident & PiratVoice - Фильмы, Видео [ 2.42 GB ] Доспехи бога: В поисках сокровищ / Kung-Fu Yoga / Gong fu yu jia [2017 BDRip-AVC от R.G. Resident] -Lexx- Скачать
1 | 0

28-11-2019 20:33  

Отключить всю рекламу на сайте

    Дорогой пользователь! Огромная просьба, поблагодарите релизера, оцените раздачу и оставьте свои комментарий, если Вы скачали Доспехи бога: В поисках сокровищ через торрент бесплатно!
    Комментировать посты могут только пользователи прошедшие не сложную регистрацию
    Показать сообщения:    

    Доспехи бога: В поисках сокровищ через торрент
    Скачать бесплатно Доспехи бога: В поисках сокровищ
    Доспехи бога: В поисках сокровищ скачать торрент
    Доспехи бога: В поисках сокровищ смотреть онлайн
    Cкачать фильм Доспехи бога: В поисках сокровищ бесплатно
    Доспехи бога: В поисках сокровищ скачать торрент в хорошем качестве
    Доспехи бога: В поисках сокровищ смотреть онлайн бесплатно в хорошем качестве


    Вы не можете начинать темы
    Вы не можете отвечать на сообщения
    Вы не можете редактировать свои сообщения
    Вы не можете удалять свои сообщения
    Вы не можете голосовать в опросах
    Вы не можете прикреплять файлы к сообщениям
    Вы можете скачивать файлы