>

5.6

iTunes

6.1

MVO

5.7

MVO

1

7.4

1 сезон

6.8

iTunes

7.2

1 сезон

13

6.7

1 сезон

8.3

RePack

30

Deluxe

pack

9.9

Лицензия

ВАЖНО

ИГРА 18+

pack

7.3

RePack

MK11

7.7

RePack

jed

7.8

RePack

fifa19

8.5

RePack

RDR2

RePack

NEED FOR SPEED™ PAYBACK

4 сезон

9 сезон

Бесстыжие 9 сезон

Все сериалы

все сериалы на PB.wtf

RePack

FAR CRY 5

Anonymous, добрый день, мы катастрофически не успеваем собрать деньги на оплату серверов, помогите нам пожалуйста 5,10,15р., для нас важна любая помощь . В качестве благодарности мы отключим Вам всю рекламу на сайте (укажите свой ник в строку Ваше имя)!

×
  
Magnet ссылка

Доспехи бога: В поисках сокровищ / Gong fu yu jia (Стэнли Тун ) [2017, боевик, комедия, детектив, BDRip 720p от potroks] Dub [Лицензия] freetor.icu

Доспехи бога: В поисках сокровищ через торрент freetor.icu

Раздают: 1 [ 0 KB/s ] Качают: 1 [ 0 KB/s ]
Размер: 4.37 GB | Добавлен: 4 года 1 мес. назад | Торрент скачан:341 раз
Смотреть онлайн Доспехи бога: В поисках сокровищ | Скачать    Ребята, помогите собрать деньги на оплату серверов!!!

02-08-2017 11:03 Доспехи бога: В поисках сокровищ Скачать торрент  

Доспехи бога: В поисках сокровищ / Gong fu yu jia

Год выпуска: 2017
Страна: Индия, Китай
Жанр: боевик, комедия, детектив, приключения
Продолжительность: 01:47:00
Перевод: Дубляж [Blu-ray RUS]
Навигация по главам: есть

Режиссер: Стэнли Тун
В ролях:

Джеки Чан (Jack), Диша Патани (Ashmita), Амира Дастур (Kyra), Мия Муци (Nuomin), Сону Суд (Randall), Эрик Цан, Аариф Ли (Jones Lee), Чжан Исин (Xiaoguang), Темур Мамисашвили (Hit Man), Фатих Угурлу (Randall's Man), Дэмиэн Мевис (Mercenary), Джоэль Адриан (Hit Man)

Описание: Профессора археологии Джека Си ждет по-настоящему увлекательное приключение. Нужно разгадать массу загадок и найти несметные сокровища древнего королевства. За самым большим кладом в истории охотится еще и могущественный преступный синдикат.



Качество: BDRip 720p
Формат: MKV
Видео: AVC, 1280x540 (2.40:1), 5402 kbps, 24 fps
Аудио: русский / AC3 / 5.1 / 48 kHz / 448 kbps / 16 bit
General
Unique ID : 239285476169169498638199508112657913392 (0xB404B4D56490882CAB9054EDF8409630)
Complete name : D:\Dospehi.Boga.v.Poiskah.Priklucheniy.2017.RUS.BDRip.720p.-HELLYWOOD.mkv
Format : Matroska
Format version : Version 4 / Version 2
File size : 4.37 GiB
Duration : 1 h 47 min
Overall bit rate : 5 851 kb/s
Movie name : Kung-Fu Yoga (2017)
Encoded date : UTC 2017-08-02 10:41:59
Writing application : mkvmerge v5.9.0 ('On The Loose') built on Dec 15 2012 16:39:58
Writing library : libebml v1.3.0 + libmatroska v1.4.0

Video
ID : 1
Format : AVC
Format/Info : Advanced Video Codec
Format profile : High@L4.1
Format settings, CABAC : Yes
Format settings, ReFrames : 9 frames
Codec ID : V_MPEG4/ISO/AVC
Duration : 1 h 47 min
Bit rate : 5 402 kb/s
Width : 1 280 pixels
Height : 540 pixels
Display aspect ratio : 2.40:1
Frame rate mode : Constant
Frame rate : 24.000 FPS
Color space : YUV
Chroma subsampling : 4:2:0
Bit depth : 8 bits
Scan type : Progressive
Bits/(Pixel*Frame) : 0.326
Stream size : 3.95 GiB (90%)
Title : potroks
Writing library : x264 core 152 r2851M ba24899
Encoding settings : cabac=1 / ref=9 / deblock=1:-2:-2 / analyse=0x3:0x132 / me=umh / subme=11 / psy=1 / psy_rd=1.00:0.10 / mixed_ref=1 / me_range=48 / chroma_me=1 / trellis=2 / 8x8dct=1 / cqm=0 / deadzone=21,11 / fast_pskip=0 / chroma_qp_offset=-3 / threads=9 / lookahead_threads=2 / sliced_threads=0 / nr=0 / decimate=0 / interlaced=0 / bluray_compat=0 / constrained_intra=0 / bframes=10 / b_pyramid=2 / b_adapt=2 / b_bias=0 / direct=3 / weightb=1 / open_gop=0 / weightp=2 / keyint=240 / keyint_min=23 / scenecut=40 / intra_refresh=0 / rc_lookahead=0 / rc=2pass / mbtree=0 / bitrate=5402 / ratetol=1.0 / qcomp=0.70 / qpmin=0 / qpmax=69 / qpstep=4 / cplxblur=20.0 / qblur=0.5 / vbv_maxrate=62500 / vbv_bufsize=44642 / nal_hrd=none / filler=0 / ip_ratio=1.35 / pb_ratio=1.25 / aq=1:0.75
Language : English
Default : Yes
Forced : No

Audio
ID : 2
Format : AC-3
Format/Info : Audio Coding 3
Mode extension : CM (complete main)
Format settings, Endianness : Big
Codec ID : A_AC3
Duration : 1 h 47 min
Bit rate mode : Constant
Bit rate : 448 kb/s
Channel(s) : 6 channels
Channel positions : Front: L C R, Side: L R, LFE
Sampling rate : 48.0 kHz
Frame rate : 31.250 FPS (1536 spf)
Compression mode : Lossy
Stream size : 343 MiB (8%)
Title : Dub | DD 5.1 @ 448 kbps - Blu-ray RUS
Language : Russian
Default : Yes
Forced : No

Menu
00:00:00.000 : :(01)00:00:00:000
00:00:57.916 : :(02)00:00:57:916
00:11:22.291 : :(03)00:11:22:291
00:25:13.458 : :(04)00:25:13:458
00:39:53.708 : :(05)00:39:53:708
00:50:26.166 : :(06)00:50:26:166
01:01:08.500 : :(07)01:01:08:500
01:16:54.583 : :(08)01:16:54:583
01:28:18.458 : :(09)01:28:18:458
freetor.icu



Скачать Доспехи бога: В поисках сокровищ через торрент http://i1.imageban.ru/out/2017/08/02/b016f70791a76f7676678f99038276de.png Скачать, смотреть онлайн Доспехи бога: В поисках сокровищ бесплантно в хорошем качестве Описание: Профессора археологии Джека Си ждет по-настоящему увлекательное . Нужно разгадать массу загадок и найти несметные ... 10 10 3
Info! Золотая раздача, скачанное не засчитывается.
Торрент: Зарегистрирован [2017-08-02 11:03] · скачан: 341 раз
Статус: √ проверено
Размер: 4.37 GB
Как cкачать? Как скачать Доспехи бога: В поисках сокровищ через торрент | UTorrent

% Раздел Тема Автор DL S | L
Индийское кино [ 2.15 GB ] Доспехи бога: В поисках сокровищ / Gong Fu Yu Jia [2017 HDRip "BD RUS"] coc900 Скачать
1 | 0
Индийское кино [ 1.46 GB ] Доспехи бога: В поисках сокровищ / Kung-Fu Yoga / Gong Fu Yu Jia [2017 BDRip] - [] Twi7ter Скачать
1 | 0
Индийское кино [ 2.5 GB ] Доспехи бога: В поисках сокровищ / Kung-Fu Yoga / Gong fu yu jia [2017 BDRip-AVC] DUB [] bober100 Скачать
1 | 0
Индийское кино [ 10.83 GB ] Доспехи бога: В поисках сокровищ / Kung-Fu Yoga / Gong fu yu jia [2017 BDRip 1080p] DUB [] bober100 Скачать
1 | 0
R.G. Resident & PiratVoice - Фильмы, Видео [ 1.46 GB ] Доспехи бога: В поисках сокровищ / Kung-Fu Yoga / Gong fu yu jia [2017 BDRip от R.G. Resident] -Lexx- Скачать
2 | 0
Индийское кино [ 745 MB ] Доспехи бога: В поисках сокровищ / Kung-Fu Yoga / Gong Fu Yu Jia [2017 HDRip] bober100 Скачать
1 | 0
R.G. Resident & PiratVoice - Фильмы, Видео [ 2.42 GB ] Доспехи бога: В поисках сокровищ / Kung-Fu Yoga / Gong fu yu jia [2017 BDRip-AVC от R.G. Resident] -Lexx- Скачать
1 | 0

28-11-2019 20:33  

Отключить всю рекламу на сайте

02-08-2017 14:51 Доспехи бога: В поисках сокровищ Скачать торрент  

Топик был перенесен из форума Фильмы [HD 720p, 1080p] (Хороший звук DUB, MVO) в форум Индийское кино


schultzfreetor.icu



02-08-2017 20:38 Доспехи бога: В поисках сокровищ Скачать торрент  

Всё вроде нормально, в стиле Джекки Чана, но эти нарисованные на компьютере волки и львы - это просто "В гостях у сказки"... детский сад.. Если бы не эта компьютерная графика с животными - было бы хоть более-менее нормально..freetor.icu



25-09-2017 21:32 Доспехи бога: В поисках сокровищ Скачать торрент  

спасибо
прикольный фильмецfreetor.icu



    Дорогой пользователь! Огромная просьба, поблагодарите релизера, оцените раздачу и оставьте свои комментарий, если Вы скачали Доспехи бога: В поисках сокровищ через торрент бесплатно!
    Комментировать посты могут только пользователи прошедшие не сложную регистрацию
    Показать сообщения:    

    Доспехи бога: В поисках сокровищ через торрент
    Скачать бесплатно Доспехи бога: В поисках сокровищ
    Доспехи бога: В поисках сокровищ скачать торрент
    Доспехи бога: В поисках сокровищ смотреть онлайн
    Cкачать фильм Доспехи бога: В поисках сокровищ бесплатно
    Доспехи бога: В поисках сокровищ скачать торрент в хорошем качестве
    Доспехи бога: В поисках сокровищ смотреть онлайн бесплатно в хорошем качестве


    Вы не можете начинать темы
    Вы не можете отвечать на сообщения
    Вы не можете редактировать свои сообщения
    Вы не можете удалять свои сообщения
    Вы не можете голосовать в опросах
    Вы не можете прикреплять файлы к сообщениям
    Вы можете скачивать файлы