>

5.6

iTunes

6.1

MVO

5.7

MVO

1

7.4

1 сезон

6.8

iTunes

7.2

1 сезон

13

6.7

1 сезон

8.3

RePack

30

Deluxe

pack

9.9

Лицензия

ВАЖНО

ИГРА 18+

pack

7.3

RePack

MK11

7.7

RePack

jed

7.8

RePack

fifa19

8.5

RePack

RDR2

RePack

NEED FOR SPEED™ PAYBACK

4 сезон

9 сезон

Бесстыжие 9 сезон

Все сериалы

все сериалы на PB.wtf

RePack

FAR CRY 5

Anonymous, добрый день, мы катастрофически не успеваем собрать деньги на оплату серверов, помогите нам пожалуйста 5,10,15р., для нас важна любая помощь . В качестве благодарности мы отключим Вам всю рекламу на сайте (укажите свой ник в строку Ваше имя)!

×
  
Magnet ссылка

Дангал / Dangal (Нитеш Тивари) [2016 г., драма, биография, спорт, HDRip] MVO [HONEY&HASEENA] freetor.icu

Дангал через торрент freetor.icu

Размер: 2.14 GB | Добавлен: 4 года 1 мес. назад | Торрент скачан:51 раз
Смотреть онлайн Дангал | Скачать    Ребята, помогите собрать деньги на оплату серверов!!!

22-07-2017 08:33 Дангал Скачать торрент  

Дангал / Dangal
Год выпуска: 2016
Страна: Индия
Жанр: драма, биография, спорт
Продолжительность: 02:41:01
Перевод: Любительский многоголосый [HONEY&HASEENA]
Субтитры: Нет

Режиссер: Нитеш Тивари

Бюджет: INR 700 000 000
Премьера в мире: 21 декабря 2016

rating

В ролях: Аамир Кхан, Сакши Танвар, Фатима Сана Шаикх, Санья Малхотра, Апаршакти Хурана, Заира Васим, Сухани Бхатнагар, Ритвик Сахоре, Гириш Кулкарни, Анураг Арора и др.

Описание: История реально существующего спортсмена Махавира Сингха Пхогата, который по причине бедности был вынужден бросить спортивную борьбу, но поклялся воспитать сына, который станет в будущем олимпийским чемпионом. Но вот досада — у них с женой родились четыре дочки. Отец сначала отчаялся, но потом, увидев, что подросшие девчонки поколачивают одноклассников, решил всё же сделать из них спортсменок. Тренер из отца получился отменный.

Качество: HDRip
Формат: AVI
Видео кодек: XviD
Аудио кодек: AC3
Видео: 720x304 (2.35:1), 24.000 fps, XviD 1.2.1 1669 kbps avg, 0.318 bit/pixel
Аудио#1: 48 kHz, AC3 2 channels, Front: L R, 224 kbps
Релиз от: BwTorrents
Релиз без рекламы!





Format : AVI
Format/Info : Audio Video Interleave
Format profile : OpenDML
File size : 2.14 GiB
Duration : 2 h 41 min
Overall bit rate : 1 905 kb/s
Movie name : Dangal
Director : soso4eg@BwTorrents
Writing application : VirtualDubMod 1.5.10.3
Original source form/Name : Hindi (Dangal)
Copyright : BwTorrents
Comment : пер. Honey&Haseena

Video
ID : 0
Format : MPEG-4 Visual
Format profile : Advanced Simple@L5
Format settings, BVOP : 1
Format settings, QPel : No
Format settings, GMC : No warppoints
Format settings, Matrix : Default (H.263)
Codec ID : XVID
Codec ID/Hint : XviD
Duration : 2 h 41 min
Bit rate : 1 669 kb/s
Width : 720 pixels
Height : 304 pixels
Display aspect ratio : 2.35:1
Frame rate : 24.000 FPS
Color space : YUV
Chroma subsampling : 4:2:0
Bit depth : 8 bits
Scan type : Progressive
Compression mode : Lossy
Bits/(Pixel*Frame) : 0.318
Stream size : 1.88 GiB (88%)
Writing library : XviD 1.2.1 (UTC 2008-12-04)

Audio
ID : 1
Format : AC-3
Format/Info : Audio Coding 3
Mode extension : CM (complete main)
Format settings, Endianness : Big
Codec ID : 2000
Duration : 2 h 41 min
Bit rate mode : Constant
Bit rate : 224 kb/s
Channel(s) : 2 channels
Channel positions : Front: L R
Sampling rate : 48.0 kHz
Frame rate : 31.250 FPS (1536 spf)
Compression mode : Lossy
Stream size : 258 MiB (12%)
Alignment : Split accross interleaves
Interleave, duration : 42 ms (1.00 video frame)
Interleave, preload duratio : 500 ms

freetor.icu



Скачать Дангал через торрент http://funkyimg.com/i/2vCEs.jpg Скачать, смотреть онлайн Дангал бесплантно в хорошем качестве Описание: История реально существующего спортсмена Махавира Сингха Пхогата, который по причине бедности был вынужден бросить спортивную ... 10 10 4
Торрент: Зарегистрирован [2017-07-22 08:33] · скачан: 51 раз
Статус: √ проверено
Размер: 2.14 GB
Как cкачать? Как скачать Дангал через торрент | UTorrent

% Раздел Тема Автор DL S | L
Индийское кино [ 2.18 GB ] Дангал / Dangal [2016 биография BDRip] [MVO] killermax2013 Скачать
1 | 0


Последний раз редактировалось: AlexSAW (2019-01-05 04:23), всего редактировалось 1 раз

28-11-2019 20:33  

Отключить всю рекламу на сайте

22-07-2017 09:25 Дангал Скачать торрент  

alex140385, поправил оформление. Перевод от HONEY&HASEENA у нас на трекере считается любительским. Перезалил постер, его размеры должны быть не больше 700*700 пикселей. Перезалил скриншоты. Добавил сэмпл. Указал, что релиз без рекламы. Благодарю за раздачу.freetor.icu



22-07-2017 09:26 Дангал Скачать торрент  

Топик был перенесен из форума Оформление раздач (Кино, Видео и ТВ) в форум Индийское кино


-Lexx-freetor.icu



22-07-2017 09:31 Дангал Скачать торрент  

-Lexx- писал(а):

alex140385, поправил оформление. Перевод от HONEY&HASEENA у нас на трекере считается любительским. Перезалил постер, его размеры должны быть не больше 700*700 пикселей. Перезалил скриншоты. Добавил сэмпл. Указал, что релиз без рекламы. Благодарю за раздачу.

Благодарю за помощь в оформлении и правку.freetor.icu



    Дорогой пользователь! Огромная просьба, поблагодарите релизера, оцените раздачу и оставьте свои комментарий, если Вы скачали Дангал через торрент бесплатно!
    Комментировать посты могут только пользователи прошедшие не сложную регистрацию
    Показать сообщения:    

    Дангал через торрент
    Скачать бесплатно Дангал
    Дангал скачать торрент
    Дангал смотреть онлайн
    Cкачать фильм Дангал бесплатно
    Дангал скачать торрент в хорошем качестве
    Дангал смотреть онлайн бесплатно в хорошем качестве


    Вы не можете начинать темы
    Вы не можете отвечать на сообщения
    Вы не можете редактировать свои сообщения
    Вы не можете удалять свои сообщения
    Вы не можете голосовать в опросах
    Вы не можете прикреплять файлы к сообщениям
    Вы можете скачивать файлы