>

5.6

iTunes

6.1

MVO

5.7

MVO

1

7.4

1 сезон

6.8

iTunes

7.2

1 сезон

13

6.7

1 сезон

8.3

RePack

30

Deluxe

pack

9.9

Лицензия

ВАЖНО

ИГРА 18+

pack

7.3

RePack

MK11

7.7

RePack

jed

7.8

RePack

fifa19

8.5

RePack

RDR2

RePack

NEED FOR SPEED™ PAYBACK

4 сезон

9 сезон

Бесстыжие 9 сезон

Все сериалы

все сериалы на PB.wtf

RePack

FAR CRY 5

Anonymous, доброе утро, мы катастрофически не успеваем собрать деньги на оплату серверов, помогите нам пожалуйста 5,10,15р., для нас важна любая помощь . В качестве благодарности мы отключим Вам всю рекламу на сайте (укажите свой ник в строку Ваше имя)!

×
  
Magnet ссылка

Доспехи бога: В поисках сокровищ / Kung-Fu Yoga / Gong fu yu jia (Стэнли Тун) [2017, боевик, комедия, детектив, BDRip 1080p] DUB [iTunes] freetor.icu

Доспехи бога: В поисках сокровищ через торрент freetor.icu

Размер: 10.64 GB | Добавлен: 4 года 3 мес. назад | Торрент скачан:380 раз
Смотреть онлайн Доспехи бога: В поисках сокровищ | Скачать    Ребята, помогите собрать деньги на оплату серверов!!!

11-06-2017 06:23 Доспехи бога: В поисках сокровищ Скачать торрент  

Доспехи бога: В поисках сокровищ / Kung-Fu Yoga / Gong fu yu jia

Год выпуска: 2017
Страна: Индия, Китай
Жанр: боевик, комедия, детектив, приключения
Продолжительность: 01:42:44
Перевод: Дубляж [iTunes]
Субтитры: нет
Режиссер: Стэнли Тун
В ролях:

Джеки Чан (Jack), Диша Патани (Ashmita), Амира Дастур (Kyra), Мия Муци (Nuomin), Сону Суд (Randall), Эрик Цан, Аариф Ли (Jones Lee), Чжан Исин (Xiaoguang), Темур Мамисашвили (Hit Man), Фатих Угурлу (Randall's Man), Дэмиэн Мевис (Mercenary), Джоэль Адриан (Hit Man)
Описание:
Профессора археологии Джека Си ждет по-настоящему увлекательное приключение. Нужно разгадать массу загадок и найти несметные сокровища древнего королевства. За самым большим кладом в истории охотится еще и могущественный преступный синдикат.
Рейтинг:

Качество: BDRip 1080p
Формат: MKV
Видео: AVC, 1920x804 (2.40:1), 13.8 Mbit/s, 25 fps, 0,358 bpp
Аудио: русский / AC3 / 5.1 / 48 kHz / 384 kbps / |DUB|
Аудио: английский / китайский / AC3 / 5.1 / 48 kHz / 448 kbps / |Оригинал|
Навигация по главам: есть
Релиз от:
General
Unique ID : 197943972694334410339148490465078500378 (0x94EA9F57B91F524A9C13E3CDC3355C1A)
Complete name : F:VideoKung.Fu.Yoga.2017.BDRip.1080p.ExKinoRay.mkv
Format : Matroska
Format version : Version 4 / Version 2
File size : 10.6 GiB
Duration : 1 h 42 min
Overall bit rate : 14.8 Mb/s
Encoded date : UTC 2017-06-10 06:09:25
Writing application : mkvmerge v12.0.0 ('Trust / Lust') 64bit
Writing library : libebml v1.3.4 + libmatroska v1.4.5

Video
ID : 1
Format : AVC
Format/Info : Advanced Video Codec
Format profile : High@L4.1
Format settings, CABAC : Yes
Format settings, ReFrames : 5 frames
Codec ID : V_MPEG4/ISO/AVC
Duration : 1 h 42 min
Bit rate : 13.8 Mb/s
Width : 1 920 pixels
Height : 804 pixels
Display aspect ratio : 2.40:1
Frame rate mode : Constant
Frame rate : 25.000 FPS
Color space : YUV
Chroma subsampling : 4:2:0
Bit depth : 8 bits
Scan type : Progressive
Bits/(Pixel*Frame) : 0.358
Stream size : 9.91 GiB (93%)
Writing library : x264 core 129 r2245 bc13772
Encoding settings : cabac=1 / ref=5 / deblock=1:-3:-3 / analyse=0x3:0x133 / me=umh / subme=11 / psy=1 / psy_rd=1.05:0.10 / mixed_ref=1 / me_range=64 / chroma_me=1 / trellis=2 / 8x8dct=1 / cqm=0 / deadzone=21,11 / fast_pskip=0 / chroma_qp_offset=-3 / threads=12 / lookahead_threads=2 / sliced_threads=0 / nr=0 / decimate=1 / interlaced=0 / bluray_compat=0 / constrained_intra=0 / bframes=8 / b_pyramid=2 / b_adapt=2 / b_bias=0 / direct=3 / weightb=1 / open_gop=0 / weightp=2 / keyint=250 / keyint_min=25 / scenecut=40 / intra_refresh=0 / rc_lookahead=60 / rc=2pass / mbtree=1 / bitrate=13820 / ratetol=1.0 / qcomp=0.70 / qpmin=0 / qpmax=69 / qpstep=4 / cplxblur=20.0 / qblur=0.5 / vbv_maxrate=40000 / vbv_bufsize=30000 / nal_hrd=none / ip_ratio=1.40 / aq=1:0.80
Language : English
Default : Yes
Forced : No

Audio #1
ID : 2
Format : AC-3
Format/Info : Audio Coding 3
Format settings, Endianness : Big
Codec ID : A_AC3
Duration : 1 h 42 min
Bit rate mode : Constant
Bit rate : 384 kb/s
Channel(s) : 6 channels
Channel positions : Front: L C R, Side: L R, LFE
Sampling rate : 48.0 kHz
Frame rate : 31.250 FPS (1536 spf)
Bit depth : 16 bits
Compression mode : Lossy
Stream size : 282 MiB (3%)
Title : iTunes
Language : Russian
Service kind : Complete Main
Default : Yes
Forced : No

Audio #2
ID : 3
Format : AC-3
Format/Info : Audio Coding 3
Format settings, Endianness : Big
Codec ID : A_AC3
Duration : 1 h 42 min
Bit rate mode : Constant
Bit rate : 640 kb/s
Channel(s) : 6 channels
Channel positions : Front: L C R, Side: L R, LFE
Sampling rate : 48.0 kHz
Frame rate : 31.250 FPS (1536 spf)
Bit depth : 16 bits
Compression mode : Lossy
Stream size : 470 MiB (4%)
Title : Original
Language : English
Service kind : Complete Main
Default : No
Forced : No

Menu
00:00:00.000 : en:Chapter 1
00:05:25.992 : en:Chapter 2
00:11:53.421 : en:Chapter 3
00:15:46.946 : en:Chapter 4
00:21:24.908 : en:Chapter 5
00:24:10.031 : en:Chapter 6
00:28:40.301 : en:Chapter 7
00:31:35.560 : en:Chapter 8
00:34:20.641 : en:Chapter 9
00:37:50.643 : en:Chapter 10
00:41:40.748 : en:Chapter 11
00:44:27.373 : en:Chapter 12
00:47:33.308 : en:Chapter 13
00:49:05.692 : en:Chapter 14
00:51:20.368 : en:Chapter 15
00:54:38.483 : en:Chapter 16
00:59:25.520 : en:Chapter 17
01:01:04.744 : en:Chapter 18
01:06:44.000 : en:Chapter 19
01:10:50.329 : en:Chapter 20
01:13:06.131 : en:Chapter 21
01:17:41.365 : en:Chapter 22
01:21:53.742 : en:Chapter 23
01:24:12.422 : en:Chapter 24
01:27:24.530 : en:Chapter 25
01:29:39.082 : en:Chapter 26
01:34:45.680 : en:Chapter 27
01:38:32.907 : en:Chapter 28
freetor.icu



Скачать Доспехи бога: В поисках сокровищ через торрент http://i5.imageban.ru/out/2017/06/01/c5cc764c29bc9f36b67e3e9e43566a2b.jpg Скачать, смотреть онлайн Доспехи бога: В поисках сокровищ бесплантно в хорошем качестве Описание: Профессора археологии Джека Си ждет по-настоящему увлекательное . Нужно разгадать массу загадок и найти несметные ... 10 10 12
Info! Золотая раздача, скачанное не засчитывается.
Торрент: Зарегистрирован [2017-06-11 06:23] · скачан: 380 раз
Статус: √ проверено
Размер: 10.64 GB
Как cкачать? Как скачать Доспехи бога: В поисках сокровищ через торрент | UTorrent

% Раздел Тема Автор DL S | L
Индийское кино [ 1.46 GB ] Доспехи бога: В поисках сокровищ / Kung-Fu Yoga / Gong Fu Yu Jia [2017 BDRip] - [] Twi7ter Скачать
1 | 0
Индийское кино [ 2.5 GB ] Доспехи бога: В поисках сокровищ / Kung-Fu Yoga / Gong fu yu jia [2017 BDRip-AVC] DUB [] bober100 Скачать
1 | 0
Индийское кино [ 10.83 GB ] Доспехи бога: В поисках сокровищ / Kung-Fu Yoga / Gong fu yu jia [2017 BDRip 1080p] DUB [] bober100 Скачать
1 | 0
R.G. Resident & PiratVoice - Фильмы, Видео [ 1.46 GB ] Доспехи бога: В поисках сокровищ / Kung-Fu Yoga / Gong fu yu jia [2017 BDRip от R.G. Resident] -Lexx- Скачать
1 | 0
Индийское кино [ 745 MB ] Доспехи бога: В поисках сокровищ / Kung-Fu Yoga / Gong Fu Yu Jia [2017 HDRip] bober100 Скачать
1 | 0
R.G. Resident & PiratVoice - Фильмы, Видео [ 2.42 GB ] Доспехи бога: В поисках сокровищ / Kung-Fu Yoga / Gong fu yu jia [2017 BDRip-AVC от R.G. Resident] -Lexx- Скачать
1 | 0

28-11-2019 20:33  

Отключить всю рекламу на сайте

    Дорогой пользователь! Огромная просьба, поблагодарите релизера, оцените раздачу и оставьте свои комментарий, если Вы скачали Доспехи бога: В поисках сокровищ через торрент бесплатно!
    Комментировать посты могут только пользователи прошедшие не сложную регистрацию
    Показать сообщения:    

    Доспехи бога: В поисках сокровищ через торрент
    Скачать бесплатно Доспехи бога: В поисках сокровищ
    Доспехи бога: В поисках сокровищ скачать торрент
    Доспехи бога: В поисках сокровищ смотреть онлайн
    Cкачать фильм Доспехи бога: В поисках сокровищ бесплатно
    Доспехи бога: В поисках сокровищ скачать торрент в хорошем качестве
    Доспехи бога: В поисках сокровищ смотреть онлайн бесплатно в хорошем качестве


    Вы не можете начинать темы
    Вы не можете отвечать на сообщения
    Вы не можете редактировать свои сообщения
    Вы не можете удалять свои сообщения
    Вы не можете голосовать в опросах
    Вы не можете прикреплять файлы к сообщениям
    Вы можете скачивать файлы