Всегда рабочее зеркало без VPN и Proxy просто перед .vidak.icu напиши любое слово или цифру, Пример http://sgjc.vidak.icu

MVO

Лицензия

1 сезон

1

1 сезон

iTunes

1 сезон

13

1 сезон

Deluxe

pack

Рекомендуем

Пиратка

30

ВАЖНО

RePack

MK11

RePack

jed

RePack

fifa19

RePack

RDR2

RePack

NEED FOR SPEED™ PAYBACK

Кинопоиск HD

6 сезон

 Острые козырьки 6 сезон

Все сериалы

все сериалы на PB.wtf

RePack

FAR CRY 5

Anonymous, нам критически не хватает 2100 руб. на оплату серверов и переферии за МАЙ, помоги нам пожалуйста, вся надежда только на тебя. В благодарность мы отключим тебе всю рекламу на сайте!

×
  
Magnet ссылка

Тихоокеанский рубеж / Pacific Rim (Гильермо дель Торо ) [2013, фантастика, боевик, приключения, UHDWEBRip 2160p] Дубляж - [Лицензия] freetor.icu

Тихоокеанский рубеж через торрент freetor.icu

Размер: 61.4 GB | Добавлен: 5 лет 5 мес. назад | Торрент скачан:257 раз
Смотреть онлайн Тихоокеанский рубеж | Скачать    Ребята, помогите собрать деньги на оплату серверов!!!

18-01-2017 09:17 Тихоокеанский рубеж Скачать торрент  

Тихоокеанский рубежPacific Rim«Чтобы сражаться с монстрами, мы создали монстров» Год выпуска: 2013
Страна: США
Жанр: фантастика, боевик, приключения
Продолжительность: 02:11:33
Перевод: Дубляж - [Лицензия]
Режиссер: Гильермо дель Торо
В ролях:
Чарли Ханнэм (Raleigh Becket), Идрис Эльба (Stacker Pentecost), Ринко Кикути (Mako Mori), Роберт Казински (Chuck Hansen), Макс Мартини (Herc Hansen), Чарли Дэй (Dr. Newton Geiszler), Берн Горман (Gottlieb), Клифтон Коллинз мл. (Ops Tendo Choi), Рон Перлман (Hannibal Chau), Диего Клаттенхофф (Yancy Becket), Брэд Уильям Хенке (Construction Foreman), Ларри Джо Кэмпбелл (Construction Worker)
Описание:
Когда из морских глубин поднялись легионы чудовищ, известных как кайдзю, началась война, которой суждено было забрать миллионы жизней и свести «человеческие ресурсы» почти к нулю всего за несколько лет. Чтобы сражаться с пришельцами, было создано специальное оружие: огромные роботы, названные егерями, они управлялись одновременно двумя пилотами, чьи сознания соединены с помощью нейронной связи. Но даже егеря оказываются почти бессильны перед лицом безжалостных кайдзю. На грани поражения у защитников человечества нет выбора, кроме как обратиться к двум весьма сомнительным героям - никому не нужному бывшему пилоту и неопытному стажеру - которые объединились, чтобы повести в бой некогда легендарного, но сейчас устаревшего егеря. Вместе они оказываются единственной надеждой человечества, последним препятствием перед надвигающимся апокалипсисом.
Рейтинг:

MPAA: PG-13 - Детям до 13 лет просмотр не желателен
Качество: UHDWEBRip 2160p
Формат: MKV
Видео: V_MPEGH/ISO/HEVC, 3840x2160 (16:9), 60745 kbps, 23,976 fps, 0,305 bpp
Аудио №1: русский / AC3 / 5.1 / 48 kHz / 640 kbps / ||
Аудио №2: английский / DTS-HD / 48 kHz / 5460 kbps / 24 bit
General
Unique ID : 208679284049241154076350262074158417925 (0x9CFE2B0EA7C28E22A37E439FC3710805)
Complete name : Pacific rim (2160p h265).mkv
Format : Matroska
Format version : Version 4 / Version 2
File size : 61.4 GiB
Duration : 2 h 11 min
Overall bit rate : 66.8 Mb/s
Movie name : Release for RuTracker
Encoded date : UTC 2016-11-14 13:09:52
Writing application : mkvmerge v9.5.0 ('Quiet Fire') 64bit
Writing library : libebml v1.3.4 + libmatroska v1.4.5

Video
ID : 1
Format : HEVC
Format/Info : High Efficiency Video Coding
Format profile : Main [email protected]@Main
Codec ID : V_MPEGH/ISO/HEVC
Duration : 2 h 11 min
Bit rate : 60.7 Mb/s
Width : 3 840 pixels
Height : 2 160 pixels
Display aspect ratio : 16:9
Frame rate mode : Constant
Frame rate : 23.976 (24000/1001) FPS
Color space : YUV
Chroma subsampling : 4:2:0
Bit depth : 10 bits
Bits/(Pixel*Frame) : 0.305
Stream size : 55.8 GiB (91%)
Writing library : x265 1.9+3-63308f7658c3:[Windows][GCC 5.2.0][64 bit] 10bit
Encoding settings : wpp / ctu=64 / min-cu-size=8 / max-tu-size=32 / tu-intra-depth=1 / tu-inter-depth=1 / me=1 / subme=2 / merange=57 / no-rect / no-amp / max-merge=2 / temporal-mvp / no-early-skip / rdpenalty=0 / no-tskip / no-tskip-fast / strong-intra-smoothing / no-lossless / no-cu-lossless / no-constrained-intra / no-fast-intra / open-gop / no-temporal-layers / interlace=0 / keyint=240 / min-keyint=24 / scenecut=40 / rc-lookahead=20 / lookahead-slices=8 / bframes=4 / bframe-bias=0 / b-adapt=2 / ref=3 / limit-refs=3 / no-limit-modes / weightp / no-weightb / aq-mode=1 / qg-size=32 / aq-strength=1.00 / cbqpoffs=0 / crqpoffs=0 / rd=3 / psy-rd=2.00 / rdoq-level=0 / psy-rdoq=0.00 / signhide / deblock / sao / no-sao-non-deblock / b-pyramid / cutree / no-intra-refresh / rc=abr / bitrate=61000 / qcomp=0.60 / qpmin=0 / qpmax=51 / qpstep=4 / ipratio=1.40 / pbratio=1.30
Default : Yes
Forced : No
Color range : Limited
Color primaries : BT.709
Transfer characteristics : BT.709
Matrix coefficients : BT.601

Audio #1
ID : 2
Format : AC-3
Format/Info : Audio Coding 3
Mode extension : CM (complete main)
Format settings, Endianness : Big
Codec ID : A_AC3
Duration : 2 h 11 min
Bit rate mode : Constant
Bit rate : 640 kb/s
Channel(s) : 6 channels
Channel positions : Front: L C R, Side: L R, LFE
Sampling rate : 48.0 kHz
Frame rate : 31.250 FPS (1536 spf)
Compression mode : Lossy
Delay relative to video : 15 s 979 ms
Stream size : 601 MiB (1%)
Title : Дубляж
Language : Russian
Default : Yes
Forced : No

Audio #2
ID : 3
Format : DTS
Format/Info : Digital Theater Systems
Format profile : MA / Core
Mode : 16
Format settings, Endianness : Big
Codec ID : A_DTS
Duration : 2 h 11 min
Bit rate mode : Variable / Constant
Bit rate : 5 460 kb/s / 1 509 kb/s
Channel(s) : 8 channels / 6 channels
Channel positions : Front: L C R, Side: L R, Back: L R, LFE / Front: L C R, Side: L R, LFE
Sampling rate : 48.0 kHz
Frame rate : 93.750 FPS (512 spf)
Bit depth : 24 bits
Compression mode : Lossless / Lossy
Delay relative to video : 15 s 979 ms
Stream size : 5.01 GiB (8%)
Title : Оригинал
Language : English
Default : No
Forced : No


Скриншотыскриншот   скриншот   скриншот   скриншот   скриншот   скриншот   скриншот  freetor.icu



Скачать Тихоокеанский рубеж через торрент http://i90.fastpic.ru/big/2017/0118/83/c759d0928262f4c46028cdb427abc683.png Скачать, смотреть онлайн Тихоокеанский рубеж бесплантно в хорошем качестве Описание: Когда из морских глубин поднялись легионы чудовищ, известных как кайдзю, началась война, которой суждено было забрать миллионы ... 8.8 10 17
Info! Золотая раздача, скачанное не засчитывается.
Торрент: Зарегистрирован [2017-01-18 09:18] · скачан: 257 раз
Статус: √ проверено
Размер: 61.4 GB
Как cкачать? Как скачать Тихоокеанский рубеж через торрент | UTorrent

% Раздел Тема Автор DL S | L
Фильмы (HD 720p, 1080p) (48-60 fps) [ 4.55 GB ] Тихоокеанский рубеж 2 / Pacific Rim: Uprising [2018 BDRip 720p / 60 FPS ] от R.G. HD-Films slaventi-69 Скачать
2 | 0
Фильмы (HD 720p, 1080p) (48-60 fps) [ 6.54 GB ] Тихоокеанский рубеж / Pacific Rim [2013 BDRip 720p / 60 FPS ] от R.G. HD-Films slaventi-69 Скачать
1 | 0
Фильмы [HD 720p, 1080p] (Хороший звук DUB, MVO) [ 16.92 GB ] Тихоокеанский рубеж / Pacific Rim [2013 BDRip 1080p DUB] [Цифровая /] лисяра Скачать
1 | 0
Ultra HD (UHD: 2K, 4K, 8K) — видео сверхвысокой чёткости [ 22.94 GB ] Тихоокеанский рубеж 2 / Pacific Rim: Uprising [2018 UHD BDRip 2160p] DUB + MVO [HDRezka Studio] sheker187 Скачать
1 | 0
Аниме [HD 720p, 1080p] [ 7.03 GB ] Тихоокеанский рубеж: Тёмная зона / Pacific Rim: The Black / Сезон: 1 / Серии: 1-7 из 7 [2021 WEBRip 1080p] [NetFlix] [MVO] killermax2013 Скачать
1 | 0
Сборники и Сиквелы (48-60 fps) [ 8.32 GB ] Тихоокеанский рубеж: Дилогия / Pacific Rim: Dilogy [2013-2018 BDRip - HEVC 1080p 10 bit 60 FPS DUB] dd2d3 Скачать
2 | 1
Сборники (HD Video) [ 15.54 GB ] Тихоокеанский рубеж: Дилогия / Pacific Rim: Dilogy [2013-2018 BDRip-HEVC 1080p ] DUB [] bober100 Скачать
1 | 0

28-11-2019 20:33  

Отключить всю рекламу на сайте

28-01-2017 09:28 Тихоокеанский рубеж Скачать торрент  

771 Lыga не воспроизводит, мб кто сталкивался...? В чём может быть проблема?freetor.icu



30-01-2017 11:24 Тихоокеанский рубеж Скачать торрент  

Begunok713 писал(а):

771 Lыga не воспроизводит, мб кто сталкивался...? В чём может быть проблема?

я сноута такие мегарипы смотрю через HDMI. у телевизора нет такого кодека (кажется x265).freetor.icu



22-10-2017 16:45 Тихоокеанский рубеж Скачать торрент  

Встаньте на раздачу, пожалуйста!!!freetor.icu



    Дорогой пользователь! Огромная просьба, поблагодарите релизера, оцените раздачу и оставьте свои комментарий, если Вы скачали Тихоокеанский рубеж через торрент бесплатно!
    Комментировать посты могут только пользователи прошедшие не сложную регистрацию
    Показать сообщения:    

    Тихоокеанский рубеж через торрент
    Скачать бесплатно Тихоокеанский рубеж
    Тихоокеанский рубеж скачать торрент
    Тихоокеанский рубеж смотреть онлайн
    Cкачать фильм Тихоокеанский рубеж бесплатно
    Тихоокеанский рубеж скачать торрент в хорошем качестве
    Тихоокеанский рубеж смотреть онлайн бесплатно в хорошем качестве


    Вы не можете начинать темы
    Вы не можете отвечать на сообщения
    Вы не можете редактировать свои сообщения
    Вы не можете удалять свои сообщения
    Вы не можете голосовать в опросах
    Вы не можете прикреплять файлы к сообщениям
    Вы можете скачивать файлы