>

5.6

iTunes

6.1

MVO

5.7

MVO

1

7.4

1 сезон

6.8

iTunes

7.2

1 сезон

13

6.7

1 сезон

8.3

RePack

30

Deluxe

pack

9.9

Лицензия

ВАЖНО

ИГРА 18+

pack

7.3

RePack

MK11

7.7

RePack

jed

7.8

RePack

fifa19

8.5

RePack

RDR2

RePack

NEED FOR SPEED™ PAYBACK

4 сезон

9 сезон

Бесстыжие 9 сезон

Все сериалы

все сериалы на PB.wtf

RePack

FAR CRY 5

Anonymous, добрый вечер, мы катастрофически не успеваем собрать деньги на оплату серверов, помогите нам пожалуйста 5,10,15р., для нас важна любая помощь . В качестве благодарности мы отключим Вам всю рекламу на сайте (укажите свой ник в строку Ваше имя)!

×
  
Magnet ссылка

Королева бандитов / Bandit Queen (Шекхар Капур) [1994 г., драма, криминал, биография, BDRip] AVO freetor.icu

Королева бандитов через торрент freetor.icu

Размер: 1.45 GB | Добавлен: 4 года 10 мес. назад | Торрент скачан:69 раз
Смотреть онлайн Королева бандитов | Скачать    Ребята, помогите собрать деньги на оплату серверов!!!

04-11-2016 16:48 Королева бандитов Скачать торрент  

Королева бандитов / Bandit Queen
Год выпуска: 1994
Страна: Великобритания, Индия
Жанр: драма, криминал, биография
Продолжительность: 01:59:41
Перевод: Авторский (Л. Володарский)
Субтитры: Английские (вшитые)

Режиссер: Шекхар Капур

rating

В ролях: Сима Бисвас, Адитья Шривастав, Анирудх Агарвал, Анил Саху, Анупам Шийам, Ашок Шарма, Нирмал Пандей, Раджеш Вивек, Рагувир Ядав, Асим Баджадж, Манодж Баджпаи, Паллави Бхарти

Описание: Эта действительная история, основанная на дневниках, написанных в тюрьме Фулан Деви - «Богиней бандитов», начинается летом 1968 года в Индии. В 11 лет родители одной из низших каст продали ее замуж. Не выдержав тяжелой работы, «любви» и побоев мужа, она бежала...

Качество: BDRip
Формат: AVI
Видео кодек: XviD
Аудио кодек: AC3
Видео: XviD, 1533 Кбит/с, 720x400, 23.976 кадр/с
Аудио: AC3, 2 ch, 192 Кбит/с, 48 kHz
Релиз от: Koenig
Общее
Полное имя : Bandit.Queen.1994.BDRip.avi
Формат : AVI
Формат/Информация : Audio Video Interleave
Размер файла : 1,45 Гбайт
Продолжительность : 1 ч. 59 м.
Общий поток : 1734 Кбит/сек
Программа кодирования : VirtualDubMod 1.5.10.2 (build 2540/release)
Библиотека кодирования : VirtualDubMod build 2540/release

Видео
Идентификатор : 0
Формат : MPEG-4 Visual
Профиль формата : Advanced Simple@L5
Параметр BVOP формата : 1
Параметр QPel формата : Нет
Параметр GMC формата : Без точки перехода
Параметр матрицы формата : Выборочная
Идентификатор кодека : XVID
Идентификатор кодека/Подсказка : XviD
Продолжительность : 1 ч. 59 м.
Битрейт : 1533 Кбит/сек
Ширина : 720 пикселей
Высота : 400 пикселей
Соотношение сторон : 16:9
Частота кадров : 23,976 (23976/1000) кадра/сек
Цветовое пространство : YUV
Субдискретизация насыщенности : 4:2:0
Битовая глубина : 8 бит
Тип развёртки : Прогрессивная
Метод сжатия : С потерями
Бит/(Пиксели*Кадры) : 0.222
Размер потока : 1,28 Гбайт (88%)
Библиотека кодирования : XviD 73

Аудио
Идентификатор : 1
Формат : AC-3
Формат/Информация : Audio Coding 3
Расширение режима : CM (complete main)
Параметр Endianness формата : Big
Идентификатор кодека : 2000
Продолжительность : 1 ч. 59 м.
Вид битрейта : Постоянный
Битрейт : 192 Кбит/сек
Каналы : 2 канала
Расположение каналов : Front: L R
Частота : 48,0 КГц
Частота кадров : 31,250 кадров/сек (1536 spf)
Метод сжатия : С потерями
Размер потока : 164 Мбайт (11%)
Выравнивание : Разделение по промежуткам
Продолжительность промежутка : 42 мс. (1,00 видеокадр)
Время предзагрузки промежутка : 500 мс.

freetor.icu



Скачать Королева бандитов через торрент https://pic1.kartinco.top/images/11/s9qbu.jpg Скачать, смотреть онлайн Королева бандитов бесплантно в хорошем качестве Описание: Эта действительная история, основанная на дневниках, написанных в тюрьме Фулан Деви - «Богиней бандитов», начинается летом 1968 ... 10 10 2
Торрент: Зарегистрирован [2016-11-04 16:48] · скачан: 69 раз
Статус: √ проверено
Размер: 1.45 GB
Как cкачать? Как скачать Королева бандитов через торрент | UTorrent

% Раздел Тема Автор DL S | L
# Фильмы с авторской озвучкой [ 10.09 GB ] Королева бандитов / Bandit Queen [1994 BDRip 1080p] AVO Леонид Ильич Скачать
1 | 0

28-11-2019 20:33  

Отключить всю рекламу на сайте

    Дорогой пользователь! Огромная просьба, поблагодарите релизера, оцените раздачу и оставьте свои комментарий, если Вы скачали Королева бандитов через торрент бесплатно!
    Комментировать посты могут только пользователи прошедшие не сложную регистрацию
    Показать сообщения:    

    Королева бандитов через торрент
    Скачать бесплатно Королева бандитов
    Королева бандитов скачать торрент
    Королева бандитов смотреть онлайн
    Cкачать фильм Королева бандитов бесплатно
    Королева бандитов скачать торрент в хорошем качестве
    Королева бандитов смотреть онлайн бесплатно в хорошем качестве


    Вы не можете начинать темы
    Вы не можете отвечать на сообщения
    Вы не можете редактировать свои сообщения
    Вы не можете удалять свои сообщения
    Вы не можете голосовать в опросах
    Вы не можете прикреплять файлы к сообщениям
    Вы можете скачивать файлы