>

5.6

iTunes

6.1

MVO

5.7

MVO

1

7.4

1 сезон

6.8

iTunes

7.2

1 сезон

13

6.7

1 сезон

8.3

RePack

30

Deluxe

pack

9.9

Лицензия

ВАЖНО

ИГРА 18+

pack

7.3

RePack

MK11

7.7

RePack

jed

7.8

RePack

fifa19

8.5

RePack

RDR2

RePack

NEED FOR SPEED™ PAYBACK

4 сезон

9 сезон

Бесстыжие 9 сезон

Все сериалы

все сериалы на PB.wtf

RePack

FAR CRY 5

Anonymous, добрый день, мы катастрофически не успеваем собрать деньги на оплату серверов, помогите нам пожалуйста 5,10,15р., для нас важна любая помощь . В качестве благодарности мы отключим Вам всю рекламу на сайте (укажите свой ник в строку Ваше имя)!

×
  
Magnet ссылка

Ферзь / Wazir (Беджой Намбиар) [2016, триллер, драма, криминал, BDRip, MVO] freetor.icu

Ферзь через торрент freetor.icu

Размер: 2.05 GB | Добавлен: 5 лет 4 мес. назад | Торрент скачан:93 раза
Смотреть онлайн Ферзь | Скачать    Ребята, помогите собрать деньги на оплату серверов!!!

27-04-2016 19:15 Ферзь Скачать торрент  


Ферзь / Wazir
««This New Year Make Your Best Move»»

ИНФОРМАЦИЯ:
Год выпуска:2016
Страна: Индия
Жанр: триллер, драма, криминал, детектив
Продолжительность: 01:42:45
Перевод: Любительский (многоголосый)
Субтитры: Russian (внешние на песни)
Режиссер: Беджой Намбиар

В Ролях:


Джон Абрахам (S.P), Амитабх Баччан (Pandit Omkarnath Dhar), Фархан Ахтар (Daanish Ali), Адити Рао Хидари (Ruhana Ali), Нил Нитин Мукеш (Wazir), Prakash Belawadi (Dcp), Манав Кол (Yazaad Qureshi), Мурли Шарма (Mahesh), Автар Гилл (GB Singh - Commissioner), Vaidehi Parshurami, Mazel Vyas (Roohi), Насир Кхан (Rameez)

Описание:
Даниш Али, офицер ATS (Anti Terrorism Squad - отряд по борьбе с терроризмом) счастлив в браке с Руанной и имеет четырехлетнюю дочь. Его счастливой семейной жизни приходит конец, когда во время преследования террористов убивают его дочь. В период восстановления после этой огромной потери, он встречает бывшего шахматного гроссмейстера - Пандитджи, который тоже страдает от горя потери своей дочери. Пандитджи учит Даниша играть в шахматы, пытаясь утешить его и отвлечь от скорби. Также он рассказывает своему новоиспечённому другу о загадочной смерти своей дочери Нины и о своих подозрениях, что это министр благосостояния Изад Куреши зверски убил ее. Даниш самостоятельно берется за это дело и начинает расследование, когда таинственный человек по имени - «Ферзь» совершает попытку нападения на Пандитджи. Кто такой этот Ферзь и почему он хочет убить Пандитджи? Кроме того, что за тайна кроется в смерти Нины?

  • Мировая премьера:7 января 2016

    ТЕХ.ДАННЫЕ:
    Качество: BDRip
    Формат: AVI
    Видео: xvid, 720x304 (2.35:1), 1838 kbps, 24 fps, 0,350 bpp
    Аудио №1: AC3 / 5.1 / 48 kHz / 448 kbps / Russian
    Аудио №2: AC3 / 5.1 / 48 kHz / 448 kbps / Hindi


    General
    Complete name : D:\Торент\Wazir (2016) BDRip\Wazir (2016) BDRip.avi
    Format : AVI
    Format/Info : Audio Video Interleave
    File size : 2.05 GiB
    Duration : 1h 42mn
    Overall bit rate : 2 859 Kbps
    Movie name : Release by basma4i
    Writing application : XviD4PSP 6.0 / 54.29.105

    Video
    ID : 0
    Format : xvid
    Codec ID : xvid
    Duration : 1h 42mn
    Bit rate : 1 839 Kbps
    Width : 720 pixels
    Height : 304 pixels
    Display aspect ratio : 2.35:1
    Frame rate : 24.000 fps
    Bits/(Pixel*Frame) : 0.350
    Stream size : 1.32 GiB (64%)

    Audio #1
    ID : 1
    Format : AC-3
    Format/Info : Audio Coding 3
    Mode extension : CM (complete main)
    Codec ID : 2000
    Duration : 1h 42mn
    Bit rate mode : Constant
    Bit rate : 448 Kbps
    Channel(s) : 6 channels
    Channel positions : Front: L C R, Side: L R, LFE
    Sampling rate : 48.0 KHz
    Bit depth : 16 bits
    Compression mode : Lossy
    Stream size : 329 MiB (16%)
    Alignment : Aligned on interleaves

    Audio #2
    ID : 2
    Format : AC-3
    Format/Info : Audio Coding 3
    Mode extension : CM (complete main)
    Codec ID : 2000
    Duration : 1h 42mn
    Bit rate mode : Constant
    Bit rate : 448 Kbps
    Channel(s) : 6 channels
    Channel positions : Front: L C R, Side: L R, LFE
    Sampling rate : 48.0 KHz
    Bit depth : 16 bits
    Compression mode : Lossy
    Stream size : 329 MiB (16%)
    Alignment : Aligned on interleaves
    Скриншоты:

    © Оформление by .::Ворон::.
    freetor.icu



  • Скачать Ферзь через торрент https://pic1.kartinco.top/images/61/ordi9.jpg Скачать, смотреть онлайн Ферзь бесплантно в хорошем качестве Описание: Даниш Али, офицер ATS (Anti Terrorism Squad - отряд по борьбе с терроризмом) счастлив в браке с Руанной и имеет четырехлетнюю ... 10 10 3
    Торрент: Зарегистрирован [2016-04-27 19:15] · скачан: 93 раз
    Статус: √ проверено
    Размер: 2.05 GB
    Как cкачать? Как скачать Ферзь через торрент | UTorrent

    % Раздел Тема Автор DL S | L
    T Индийское кино [ 2.45 GB ] Ферзь / Wazir [2016 WEBRip 720p Любительский [❖ Honey&Haseena ❖] Ворон Скачать
    1 | 0

    28-11-2019 20:33  

    Отключить всю рекламу на сайте

      Дорогой пользователь! Огромная просьба, поблагодарите релизера, оцените раздачу и оставьте свои комментарий, если Вы скачали Ферзь через торрент бесплатно!
      Комментировать посты могут только пользователи прошедшие не сложную регистрацию
      Показать сообщения:    

      Ферзь через торрент
      Скачать бесплатно Ферзь
      Ферзь скачать торрент
      Ферзь смотреть онлайн
      Cкачать фильм Ферзь бесплатно
      Ферзь скачать торрент в хорошем качестве
      Ферзь смотреть онлайн бесплатно в хорошем качестве


      Вы не можете начинать темы
      Вы не можете отвечать на сообщения
      Вы не можете редактировать свои сообщения
      Вы не можете удалять свои сообщения
      Вы не можете голосовать в опросах
      Вы не можете прикреплять файлы к сообщениям
      Вы можете скачивать файлы