>

5.6

iTunes

6.1

MVO

5.7

MVO

1

7.4

1 сезон

6.8

iTunes

7.2

1 сезон

13

6.7

1 сезон

8.3

RePack

30

Deluxe

pack

9.9

Лицензия

ВАЖНО

ИГРА 18+

pack

7.3

RePack

MK11

7.7

RePack

jed

7.8

RePack

fifa19

8.5

RePack

RDR2

RePack

NEED FOR SPEED™ PAYBACK

4 сезон

9 сезон

Бесстыжие 9 сезон

Все сериалы

все сериалы на PB.wtf

RePack

FAR CRY 5

Anonymous, добрый день, мы катастрофически не успеваем собрать деньги на оплату серверов, помогите нам пожалуйста 5,10,15р., для нас важна любая помощь . В качестве благодарности мы отключим Вам всю рекламу на сайте (укажите свой ник в строку Ваше имя)!

×
  
Magnet ссылка

Ферзь / Wazir (Беджой Намбиар) [2016, триллер, драма, криминал, WEBRip 720p, Любительский (двухголосый)[❖ Honey&Haseena ❖] freetor.icu

Ферзь через торрент freetor.icu

Размер: 2.45 GB | Добавлен: 5 лет 5 мес. назад | Торрент скачан:29 раз
Смотреть онлайн Ферзь | Скачать    Ребята, помогите собрать деньги на оплату серверов!!!

15-04-2016 11:08 Ферзь Скачать торрент  


Ферзь / Wazir
««This New Year Make Your Best Move»»

ИНФОРМАЦИЯ:
Год выпуска:2016
Страна: Индия
Жанр: триллер, драма, криминал, детектив
Продолжительность: 01:45:48
Перевод: Любительский (двухголосый)[❖ Honey&Haseena ❖]
Субтитры: Русские (только на песни)
Режиссер: Беджой Намбиар

В Ролях:


Джон Абрахам (S.P), Амитабх Баччан (Pandit Omkarnath Dhar), Фархан Ахтар (Daanish Ali), Адити Рао Хидари (Ruhana Ali), Нил Нитин Мукеш (Wazir), Prakash Belawadi (Dcp), Манав Кол (Yazaad Qureshi), Мурли Шарма (Mahesh), Автар Гилл (GB Singh - Commissioner), Vaidehi Parshurami, Mazel Vyas (Roohi), Насир Кхан (Rameez)

Описание:
Даниш Али, офицер ATS (Anti Terrorism Squad - отряд по борьбе с терроризмом) счастлив в браке с Руанной и имеет четырехлетнюю дочь. Его счастливой семейной жизни приходит конец, когда во время преследования террористов убивают его дочь. В период восстановления после этой огромной потери, он встречает бывшего шахматного гроссмейстера - Пандитджи, который тоже страдает от горя потери своей дочери. Пандитджи учит Даниша играть в шахматы, пытаясь утешить его и отвлечь от скорби. Также он рассказывает своему новоиспечённому другу о загадочной смерти своей дочери Нины и о своих подозрениях, что это министр благосостояния Изад Куреши зверски убил ее. Даниш самостоятельно берется за это дело и начинает расследование, когда таинственный человек по имени - «Ферзь» совершает попытку нападения на Пандитджи. Кто такой этот Ферзь и почему он хочет убить Пандитджи? Кроме того, что за тайна кроется в смерти Нины?

  • Мировая премьера:7 января 2016

    ТЕХ.ДАННЫЕ:
    Качество: WEBRip 720p
    Формат: MKV
    Видео: AVC, 1280x720 (16:9), 2997 kbps, 25 fps, 0,130 bpp
    Аудио: MP3 / 2.0 / 48 kHz / 320 kbps /


    General
    Unique ID : 174630564128872350936835846062911314951 (0x83609F8E5E0969B7B67392649F1CDC07)
    Complete name : D:\Торент\Wazir.2016.WEB-DLRip.720p.HoneyHaseena.mkv
    Format : Matroska
    Format version : Version 4 / Version 2
    File size : 2.45 GiB
    Duration : 1h 45mn
    Overall bit rate : 3 314 Kbps
    Encoded date : UTC 2016-04-09 04:51:50
    Writing application : mkvmerge v8.3.0 ('Over the Horizon') 32bit
    Writing library : libebml v1.3.1 + libmatroska v1.4.2

    Video
    ID : 1
    Format : AVC
    Format/Info : Advanced Video Codec
    Format profile : Main@L3.1
    Format settings, CABAC : Yes
    Format settings, ReFrames : 1 frame
    Codec ID : V_MPEG4/ISO/AVC
    Duration : 1h 45mn
    Bit rate : 2 997 Kbps
    Width : 1 280 pixels
    Height : 720 pixels
    Display aspect ratio : 16:9
    Frame rate mode : Variable
    Frame rate : 25.000 fps
    Color space : YUV
    Chroma subsampling : 4:2:0
    Bit depth : 8 bits
    Scan type : Progressive
    Bits/(Pixel*Frame) : 0.130
    Stream size : 2.16 GiB (88%)
    Writing library : x264 core 129
    Encoding settings : cabac=1 / ref=1 / deblock=1:0:0 / analyse=0x1:0x131 / me=dia / subme=2 / psy=1 / psy_rd=1.00:0.00 / mixed_ref=0 / me_range=16 / chroma_me=1 / trellis=0 / 8x8dct=0 / cqm=0 / deadzone=21,11 / fast_pskip=1 / chroma_qp_offset=0 / threads=4 / lookahead_threads=1 / sliced_threads=0 / nr=0 / decimate=1 / interlaced=0 / bluray_compat=0 / constrained_intra=0 / bframes=0 / weightp=2 / keyint=250 / keyint_min=25 / scenecut=40 / intra_refresh=0 / rc_lookahead=40 / rc=abr / mbtree=1 / bitrate=2997 / ratetol=1.0 / qcomp=0.60 / qpmin=10 / qpmax=51 / qpstep=4 / ip_ratio=1.41 / aq=1:1.00
    Default : Yes
    Forced : No

    Audio
    ID : 2
    Format : MPEG Audio
    Format version : Version 1
    Format profile : Layer 3
    Mode : Joint stereo
    Codec ID : A_MPEG/L3
    Codec ID/Hint : MP3
    Duration : 1h 45mn
    Bit rate mode : Constant
    Bit rate : 320 Kbps
    Channel(s) : 2 channels
    Sampling rate : 48.0 KHz
    Compression mode : Lossy
    Stream size : 242 MiB (10%)
    Default : Yes
    Forced : No

    Text
    ID : 3
    Format : UTF-8
    Codec ID : S_TEXT/UTF8
    Codec ID/Info : UTF-8 Plain Text
    Default : Yes
    Forced : No
    Скриншоты:

    © Оформление by .::Ворон::.
    freetor.icu



  • Скачать Ферзь через торрент https://pic1.kartinco.top/images/61/ordi9.jpg Скачать, смотреть онлайн Ферзь бесплантно в хорошем качестве Описание: Даниш Али, офицер ATS (Anti Terrorism Squad - отряд по борьбе с терроризмом) счастлив в браке с Руанной и имеет четырехлетнюю ... 10 10 3
    Торрент: Зарегистрирован [2016-04-15 11:08] · скачан: 29 раз
    Статус: T временная
    Размер: 2.45 GB
    Как cкачать? Как скачать Ферзь через торрент | UTorrent

    % Раздел Тема Автор DL S | L
    Индийское кино [ 2.05 GB ] Ферзь / Wazir [2016 BDRip MVO] Ворон Скачать
    1 | 0

    28-11-2019 20:33  

    Отключить всю рекламу на сайте

      Дорогой пользователь! Огромная просьба, поблагодарите релизера, оцените раздачу и оставьте свои комментарий, если Вы скачали Ферзь через торрент бесплатно!
      Комментировать посты могут только пользователи прошедшие не сложную регистрацию
      Показать сообщения:    

      Ферзь через торрент
      Скачать бесплатно Ферзь
      Ферзь скачать торрент
      Ферзь смотреть онлайн
      Cкачать фильм Ферзь бесплатно
      Ферзь скачать торрент в хорошем качестве
      Ферзь смотреть онлайн бесплатно в хорошем качестве


      Вы не можете начинать темы
      Вы не можете отвечать на сообщения
      Вы не можете редактировать свои сообщения
      Вы не можете удалять свои сообщения
      Вы не можете голосовать в опросах
      Вы не можете прикреплять файлы к сообщениям
      Вы можете скачивать файлы