1 сезон

3 сезон

iTunes

1

iTunes

MVO

iTunes

13

1 сезон

RePack

30

Deluxe

pack

Лицензия

ВАЖНО

ИГРА 18+

pack

RePack

MK11

RePack

jed

RePack

fifa19

RePack

RDR2

RePack

NEED FOR SPEED™ PAYBACK

4 сезон

9 сезон

Бесстыжие 9 сезон

Все сериалы

все сериалы на PB.wtf

RePack

FAR CRY 5

Anonymous, добрый вечер, мы катастрофически не успеваем собрать деньги на оплату серверов, помогите нам пожалуйста 5,10,15р., для нас важна любая помощь . В качестве благодарности мы отключим Вам всю рекламу на сайте (укажите свой ник в строку Ваше имя)!

×
  
Magnet ссылка

Брюс Ли. Фильмография / Bruce Lee. Filmography (Ло Вэй, Брюс Ли, Роберт Клоуз, Нг Сиюэнь, Саммо Хунг Кам-Бо, Кори Юэнь) [1971-1981; боевые искусства; BDRip 1080p] [AVC] DUB+MVO+AVO freetor.icu

Брюс Ли. Фильмография через торрент freetor.icu

Раздают: 1 [ 0 KB/s ]
Размер: 76.11 GB | Добавлен: 1 год 2 мес. назад | Торрент скачан:25 раз
Скачать  

26-03-2016 13:54 Брюс Ли. Фильмография Скачать торрент  

Брюс Ли. Фильмография / Bruce Lee. Filmography
Большой босс / The big boss
Год выпуска: 1971
Страна: Гонконг
Жанр: боевые искусства
Продолжительность: 1:40:14
Перевод: Многоголосый и одноголосый закадровый, авторский
Режиссер: Ло Вэй / Lo Wei
В ролях: Брюс Ли /Bruce Lee/, Мария Йи /Maria Yi/, Джеймс Тьен /James Tien/, Инь-Чиэ Хань /Yin-Chieh Han/, Малалин /Malalene/, Тони Лю /Tony Liu/, Лам Чин-Йинг /Lam Ching-Ying/, Нора Мяо /Nora Miao/
Сюжет: Бангкокская фабрика по производству льда, куда поступает на работу деревенский парень (Брюс Ли), оказывается злачным местом. Очень скоро молодой рабочий узнает, что его шеф - глава наркосиндиката, а в брикетах льда бандиты прячут наркотики...
Качество: BDRip
Формат: MKV
ВидеоКодек: h.264
АудиоКодек: AC3, DTS
Видео: 1920x818, 23.976 fps, 17531 Kbps
Аудио#1: Russian: 48 kHz, DTS, 3/2 (L,C,R,l,r) + LFE ch, 755 kbps |Многоголосый закадровый, Superbit|
Аудио#2: Russian: 48 kHz, AC3, 2/0 (L,R) ch, 192 kbps |Многоголосый закадровый|
Аудио#3: Russian: 48 kHz, DTS, 3/2 (L,C,R,l,r) + LFE ch, 1509 kbps |Одноголосый закадровый, В. Королёв|
Аудио#4: Russian: 48 kHz, AC3, 2/0 (L,R) ch, 192 kbps |Одноголосый закадровый, В. Горчаков|
Аудио#5: Russian: 48 kHz, AC3, 2/0 (L,R) ch, 192 kbps |Одноголосый закадровый, Ю. Живов|
Аудио#6: Chinese: 48 kHz, DTS, 3/2 (L,C,R,l,r) + LFE ch, 1509 kbps

Код:

Общее
Уникальный идентификатор                 : 148459763147791062562945411646870000645 (0x6FB04F7254A33717A4E411C4157C1405)
Полное имя                               : 1 Bruce Lee - The Big Boss, 1971.mkv
Формат                                   : Matroska
Версия формата                           : Version 4
Размер файла                             : 15,3 Гбайт
Продолжительность                        : 1 ч. 40 м.
Общий поток                              : 21,9 Мбит/сек
Название фильма                          : Tang shan da xiong (1971) - Release for HDCLUB by SbR
Дата кодирования                         : UTC 2020-04-21 11:32:24
Программа кодирования                    : mkvmerge v43.0.0 ('The Quartermaster') 64-bit
Библиотека кодирования                   : libebml v1.3.10 + libmatroska v1.5.2
Обложка                                  : Yes
Attachments                              : cover.jpg / xlog.txt

Видео
Идентификатор                            : 1
Формат                                   : AVC
Формат/Информация                        : Advanced Video Codec
Профиль формата                          : [email protected]
Настройки формата                        : CABAC / 5 Ref Frames
Параметр CABAC формата                   : Да
Параметр RefFrames формата               : 5 кадров
Идентификатор кодека                     : V_MPEG4/ISO/AVC
Продолжительность                        : 1 ч. 40 м.
Битрейт                                  : 17,5 Мбит/сек
Ширина                                   : 1920 пикселей
Высота                                   : 818 пикселей
Соотношение сторон                       : 2,35:1
Режим частоты кадров                     : Постоянный
Частота кадров                           : 23,976 (24000/1001) кадра/сек
Цветовое пространство                    : YUV
Субдискретизация насыщенности            : 4:2:0
Битовая глубина                          : 8 бит
Тип развёртки                            : Прогрессивная
Бит/(Пиксели*Кадры)                      : 0.466
Размер потока                            : 12,3 Гбайт (80%)
Заголовок                                : Release for HDCLUB
Библиотека кодирования                   : x264 core 146 r2538kMod 121396c
Настройки программы                      : cabac=1 / ref=5 / deblock=1:-2:-2 / analyse=0x3:0x133 / me=umh / subme=11 / psy=1 / fade_compensate=0.00 / psy_rd=1.00:0.00 / mixed_ref=1 / me_range=32 / chroma_me=1 / trellis=2 / 8x8dct=1 / cqm=0 / deadzone=21,11 / fast_pskip=1 / chroma_qp_offset=-2 / threads=12 / lookahead_threads=2 / sliced_threads=0 / nr=0 / decimate=1 / interlaced=0 / bluray_compat=0 / constrained_intra=0 / fgo=0 / bframes=8 / b_pyramid=2 / b_adapt=2 / b_bias=0 / direct=1 / weightb=1 / open_gop=0 / weightp=2 / keyint=250 / keyint_min=23 / scenecut=40 / intra_refresh=0 / rc_lookahead=60 / rc=crf / mbtree=0 / crf=17.5000 / qcomp=0.70 / qpmin=0 / qpmax=69 / qpstep=4 / vbv_maxrate=62500 / vbv_bufsize=78125 / crf_max=0.0 / nal_hrd=none / filler=0 / ip_ratio=1.40 / pb_ratio=1.30 / aq=1:0.80
Язык                                     : Chinese
Default                                  : Да
Forced                                   : Нет
Цветовой диапазон                        : Limited
Основные цвета                           : BT.709
Характеристики трансфера                 : BT.709
Коэффициенты матрицы                     : BT.709

Аудио #1
Идентификатор                            : 2
Формат                                   : DTS
Формат/Информация                        : Digital Theater Systems
Идентификатор кодека                     : A_DTS
Продолжительность                        : 1 ч. 40 м.
Вид битрейта                             : Постоянный
Битрейт                                  : 755 Кбит/сек
Каналы                                   : 6 каналов
Channel layout                           : C L R Ls Rs LFE
Частота                                  : 48,0 КГц
Частота кадров                           : 93,750 кадра/сек (512 SPF)
Битовая глубина                          : 24 бит
Метод сжатия                             : С потерями
Размер потока                            : 541 Мбайт (3%)
Заголовок                                : MVO, Superbit
Язык                                     : Russian
Default                                  : Да
Forced                                   : Нет

Аудио #2
Идентификатор                            : 3
Формат                                   : AC-3
Формат/Информация                        : Audio Coding 3
Коммерческое название                    : Dolby Digital
Идентификатор кодека                     : A_AC3
Продолжительность                        : 1 ч. 40 м.
Вид битрейта                             : Постоянный
Битрейт                                  : 192 Кбит/сек
Каналы                                   : 2 канала
Channel layout                           : L R
Частота                                  : 48,0 КГц
Частота кадров                           : 31,250 кадров/сек (1536 SPF)
Битовая глубина                          : 16 бит
Метод сжатия                             : С потерями
Размер потока                            : 138 Мбайт (1%)
Заголовок                                : MVO
Язык                                     : Russian
ServiceKind/String                       : Complete Main
Default                                  : Нет
Forced                                   : Нет

Аудио #3
Идентификатор                            : 4
Формат                                   : DTS
Формат/Информация                        : Digital Theater Systems
Идентификатор кодека                     : A_DTS
Продолжительность                        : 1 ч. 40 м.
Вид битрейта                             : Постоянный
Битрейт                                  : 1509 Кбит/сек
Каналы                                   : 6 каналов
Channel layout                           : C L R Ls Rs LFE
Частота                                  : 48,0 КГц
Частота кадров                           : 93,750 кадра/сек (512 SPF)
Битовая глубина                          : 16 бит
Метод сжатия                             : С потерями
Размер потока                            : 1,06 Гбайт (7%)
Заголовок                                : Королёв
Язык                                     : Russian
Default                                  : Нет
Forced                                   : Нет

Аудио #4
Идентификатор                            : 5
Формат                                   : AC-3
Формат/Информация                        : Audio Coding 3
Коммерческое название                    : Dolby Digital
Идентификатор кодека                     : A_AC3
Продолжительность                        : 1 ч. 40 м.
Вид битрейта                             : Постоянный
Битрейт                                  : 192 Кбит/сек
Каналы                                   : 2 канала
Channel layout                           : L R
Частота                                  : 48,0 КГц
Частота кадров                           : 31,250 кадров/сек (1536 SPF)
Битовая глубина                          : 16 бит
Метод сжатия                             : С потерями
Размер потока                            : 138 Мбайт (1%)
Заголовок                                : Горчаков
Язык                                     : Russian
ServiceKind/String                       : Complete Main
Default                                  : Нет
Forced                                   : Нет

Аудио #5
Идентификатор                            : 6
Формат                                   : AC-3
Формат/Информация                        : Audio Coding 3
Коммерческое название                    : Dolby Digital
Идентификатор кодека                     : A_AC3
Продолжительность                        : 1 ч. 40 м.
Вид битрейта                             : Постоянный
Битрейт                                  : 192 Кбит/сек
Каналы                                   : 2 канала
Channel layout                           : L R
Частота                                  : 48,0 КГц
Частота кадров                           : 31,250 кадров/сек (1536 SPF)
Битовая глубина                          : 16 бит
Метод сжатия                             : С потерями
Размер потока                            : 138 Мбайт (1%)
Заголовок                                : Живов
Язык                                     : Russian
ServiceKind/String                       : Complete Main
Default                                  : Нет
Forced                                   : Нет

Аудио #6
Идентификатор                            : 7
Формат                                   : DTS
Формат/Информация                        : Digital Theater Systems
Идентификатор кодека                     : A_DTS
Продолжительность                        : 1 ч. 40 м.
Вид битрейта                             : Постоянный
Битрейт                                  : 1509 Кбит/сек
Каналы                                   : 6 каналов
Channel layout                           : C L R Ls Rs LFE
Частота                                  : 48,0 КГц
Частота кадров                           : 93,750 кадра/сек (512 SPF)
Битовая глубина                          : 24 бит
Метод сжатия                             : С потерями
Размер потока                            : 1,06 Гбайт (7%)
Язык                                     : Chinese
Default                                  : Нет
Forced                                   : Нет

скриншот  скриншот  скриншот  
Кулак ярости / Fist of fury
Год выпуска: 1972
Страна: Гонконг
Жанр: боевые искусства
Продолжительность: 1:46:50
Перевод: Многоголосый и одноголосый закадровый, авторский
Режиссер: Ло Вэй / Lo Wei
В ролях: Брюс Ли /Bruce Lee/, Нора Мяо /Nora Miao/, Джеймс Тьен /James Tien/, Мария Йи /Maria Yi/
Сюжет: Брюс играет роль ученика школы кунг-фу. Приехав в школу он узнает, что его учитель .... умер. Ну, а дальше - месть за смерть учителя в японской школе каратэ, которые, как случайно узнает Чен Чен, и убили учителя, подсунув ему отравленные крекеры. Исключительно жестокие сцены боев, качественно поставленные схватки, заставляют забыть о том, что это художественный, а не документальный фильм.
Качество: BDRip 1080p
Формат: MKV
ВидеоКодек: h.264
АудиоКодек: AC3, DTS
Видео: 1920x818, 23.976 fps, 11847 Kbps
Аудио#1: Russian: 48 kHz, DTS, 3/2 (L,C,R,l,r) + LFE ch, 768 kbps |Многоголосый закадровый, Superbit|
Аудио#2: Russian: 48 kHz, AC3, 2/0 (L,R) ch, 192 kbps |Многоголосый закадровый|
Аудио#3: Russian: 48 kHz, AC3, 2/0 (L,R) ch, 192 kbps |Одноголосый закадровый, В.Горчаков|
Аудио#4: Russian: 48 kHz, AC3, 2/0 (L,R) ch, 192 kbps |Одноголосый закадровый, Ю.Живов|
Аудио#5: Russian: 48 kHz, DTS, 3/2 (L,C,R,l,r) + LFE ch, 768 kbps avg |Одноголосый закадровый, В.Королев|
Аудио#6: Chinese: 48 kHz, DTS-ES, 3/3 (L,C,R,l,c,r) + LFE ch, 1536 kbps

Код:

Общее
Уникальный идентификатор                 : 109355093773957997076954628054064840360 (0x524506643DA85BE2CEDD391CA2F83EA8)
Полное имя                               : 2 Bruce Lee - Fist of fury, 1972.mkv
Формат                                   : Matroska
Версия формата                           : Version 4
Размер файла                             : 11,5 Гбайт
Продолжительность                        : 1 ч. 46 м.
Общий поток                              : 15,4 Мбит/сек
Название фильма                          : Jing wu men (1972) - Release for HDCLUB by Skazhutin
Дата кодирования                         : UTC 2020-04-21 11:37:51
Программа кодирования                    : mkvmerge v43.0.0 ('The Quartermaster') 64-bit
Библиотека кодирования                   : libebml v1.3.10 + libmatroska v1.5.2
Обложка                                  : Yes
Attachments                              : cover.jpg / xlog.txt

Видео
Идентификатор                            : 1
Формат                                   : AVC
Формат/Информация                        : Advanced Video Codec
Профиль формата                          : [email protected]
Настройки формата                        : CABAC / 5 Ref Frames
Параметр CABAC формата                   : Да
Параметр RefFrames формата               : 5 кадров
Идентификатор кодека                     : V_MPEG4/ISO/AVC
Продолжительность                        : 1 ч. 46 м.
Битрейт                                  : 11,8 Мбит/сек
Ширина                                   : 1920 пикселей
Высота                                   : 818 пикселей
Соотношение сторон                       : 2,35:1
Режим частоты кадров                     : Постоянный
Частота кадров                           : 23,976 (24000/1001) кадра/сек
Цветовое пространство                    : YUV
Субдискретизация насыщенности            : 4:2:0
Битовая глубина                          : 8 бит
Тип развёртки                            : Прогрессивная
Бит/(Пиксели*Кадры)                      : 0.315
Размер потока                            : 8,84 Гбайт (77%)
Заголовок                                : Release for HDCLUB
Библиотека кодирования                   : x264 core 120 r2146 bcd41db
Настройки программы                      : cabac=1 / ref=5 / deblock=1:-3:-3 / analyse=0x3:0x113 / me=umh / subme=11 / psy=1 / psy_rd=1.00:0.00 / mixed_ref=1 / me_range=48 / chroma_me=1 / trellis=2 / 8x8dct=1 / cqm=0 / deadzone=21,11 / fast_pskip=1 / chroma_qp_offset=-2 / threads=12 / sliced_threads=0 / nr=0 / decimate=1 / interlaced=0 / bluray_compat=0 / constrained_intra=0 / bframes=8 / b_pyramid=2 / b_adapt=2 / b_bias=0 / direct=1 / weightb=1 / open_gop=0 / weightp=2 / keyint=250 / keyint_min=23 / scenecut=40 / intra_refresh=0 / rc_lookahead=40 / rc=crf / mbtree=0 / crf=17.5 / qcomp=0.60 / qpmin=0 / qpmax=69 / qpstep=4 / vbv_maxrate=50000 / vbv_bufsize=62500 / crf_max=0.0 / nal_hrd=none / ip_ratio=1.40 / pb_ratio=1.30 / aq=2:0.80
Язык                                     : Chinese
Default                                  : Да
Forced                                   : Нет
Цветовой диапазон                        : Limited
Коэффициенты матрицы                     : BT.709

Аудио #1
Идентификатор                            : 2
Формат                                   : DTS
Формат/Информация                        : Digital Theater Systems
Идентификатор кодека                     : A_DTS
Продолжительность                        : 1 ч. 46 м.
Вид битрейта                             : Постоянный
Битрейт                                  : 755 Кбит/сек
Каналы                                   : 6 каналов
Channel layout                           : C L R Ls Rs LFE
Частота                                  : 48,0 КГц
Частота кадров                           : 93,750 кадра/сек (512 SPF)
Битовая глубина                          : 24 бит
Метод сжатия                             : С потерями
Размер потока                            : 576 Мбайт (5%)
Заголовок                                : DTS 5.1 @ 768 kbps - Многоголосный, Superbit
Язык                                     : Russian
Default                                  : Да
Forced                                   : Нет

Аудио #2
Идентификатор                            : 3
Формат                                   : AC-3
Формат/Информация                        : Audio Coding 3
Коммерческое название                    : Dolby Digital
Идентификатор кодека                     : A_AC3
Продолжительность                        : 1 ч. 46 м.
Вид битрейта                             : Постоянный
Битрейт                                  : 192 Кбит/сек
Каналы                                   : 2 канала
Channel layout                           : L R
Частота                                  : 48,0 КГц
Частота кадров                           : 31,250 кадров/сек (1536 SPF)
Битовая глубина                          : 16 бит
Метод сжатия                             : С потерями
Размер потока                            : 147 Мбайт (1%)
Заголовок                                : AC3 2.0 @ 192 kbps - Многоголосный
Язык                                     : Russian
ServiceKind/String                       : Complete Main
Default                                  : Нет
Forced                                   : Нет

Аудио #3
Идентификатор                            : 4
Формат                                   : AC-3
Формат/Информация                        : Audio Coding 3
Коммерческое название                    : Dolby Digital
Идентификатор кодека                     : A_AC3
Продолжительность                        : 1 ч. 46 м.
Вид битрейта                             : Постоянный
Битрейт                                  : 192 Кбит/сек
Каналы                                   : 2 канала
Channel layout                           : L R
Частота                                  : 48,0 КГц
Частота кадров                           : 31,250 кадров/сек (1536 SPF)
Битовая глубина                          : 16 бит
Метод сжатия                             : С потерями
Размер потока                            : 147 Мбайт (1%)
Заголовок                                : AC3 2.0 @ 192 kbps - Одноголосный, В. Горчаков
Язык                                     : Russian
ServiceKind/String                       : Complete Main
Default                                  : Нет
Forced                                   : Нет

Аудио #4
Идентификатор                            : 5
Формат                                   : AC-3
Формат/Информация                        : Audio Coding 3
Коммерческое название                    : Dolby Digital
Идентификатор кодека                     : A_AC3
Продолжительность                        : 1 ч. 46 м.
Вид битрейта                             : Постоянный
Битрейт                                  : 192 Кбит/сек
Каналы                                   : 2 канала
Channel layout                           : L R
Частота                                  : 48,0 КГц
Частота кадров                           : 31,250 кадров/сек (1536 SPF)
Битовая глубина                          : 16 бит
Метод сжатия                             : С потерями
Размер потока                            : 147 Мбайт (1%)
Заголовок                                : AC3 2.0 @ 192 kbps - Одноголосный, Ю. Живов
Язык                                     : Russian
ServiceKind/String                       : Complete Main
Default                                  : Нет
Forced                                   : Нет

Аудио #5
Идентификатор                            : 6
Формат                                   : DTS
Формат/Информация                        : Digital Theater Systems
Идентификатор кодека                     : A_DTS
Продолжительность                        : 1 ч. 46 м.
Вид битрейта                             : Постоянный
Битрейт                                  : 755 Кбит/сек
Каналы                                   : 6 каналов
Channel layout                           : C L R Ls Rs LFE
Частота                                  : 48,0 КГц
Частота кадров                           : 93,750 кадра/сек (512 SPF)
Битовая глубина                          : 24 бит
Метод сжатия                             : С потерями
Размер потока                            : 576 Мбайт (5%)
Заголовок                                : DTS 5.1 @ 768 kbps - Одноголосный, В. Королев
Язык                                     : Russian
Default                                  : Нет
Forced                                   : Нет

Аудио #6
Идентификатор                            : 7
Формат                                   : DTS ES XXCH
Формат/Информация                        : Digital Theater Systems
Коммерческое название                    : DTS-ES Discrete
Идентификатор кодека                     : A_DTS
Продолжительность                        : 1 ч. 46 м.
Вид битрейта                             : Постоянный
Битрейт                                  : 1509 Кбит/сек
Каналы                                   : 6 каналов
Channel(s)_Original                      : 7 каналов
Channel layout                           : C L R Ls Rs Cb LFE
Частота                                  : 48,0 КГц
Частота кадров                           : 93,750 кадра/сек (512 SPF)
Битовая глубина                          : 24 бит
Метод сжатия                             : С потерями
Размер потока                            : 1,12 Гбайт (10%)
Заголовок                                : DTS-ES 6.1 @ 1536 kbps
Язык                                     : Chinese
Default                                  : Нет
Forced                                   : Нет

скриншот  скриншот  скриншот  
Путь дракона / The way of the dragon
Год выпуска: 1972
Страна: Гонконг
Жанр: боевые искусства
Продолжительность: 1:38:40
Перевод: Многоголосый и одноголосый закадровый, авторский
Режиссер: Брюс Ли /Bruce Lee/
В ролях: Брюс Ли /Bruce Lee/, Нора Миао /Nora Miao/, Чак Норрис /Chuck Norris/, Вэй Пинао /Ping-Ao Wei/, Роберт Уолл /Robert Wall/, Ван Вэнг /Ing-Sik Whang/, Тони Лю /Tony Liu/, Юникорн Чан /Unicorn Chan/, Мализа Лонго /Malisa Longo/, Фу Чинг Чен /Fu Ching Chen/, Чин Ти /Chin Ti/
Сюжет: Тан приезжает из Гонконга в Рим, чтобы помочь друзьям семьи, чей ресторан задумали отобрать местные мафиози, но недооценив с виду скромного молодого человека и сумев справиться с ним своими силами, мафиози нанимают лучших европейских и японских мастеров боевых искусств, но Тан с легкостью побеждает всех. И тогда против него на арену древнего Колизея выходит «крутой и смертоносный» американец Колт.
Качество: BDRip 1080p
Формат: MKV
ВидеоКодек: h.264
АудиоКодек: AC3, DTS
Видео: 1920x820, 23.976 fps, 12073 Kbps
Аудио#1: Russian: 48 kHz, DTS, 3/2 (L,C,R,l,r) + LFE ch, 768 kbps |Многоголосый закадровый, Superbit|
Аудио#2: Russian: 48 kHz, AC3, 3/2 (L,C,R,l,r) + LFE ch, 384 kbps |Многоголосый закадровый, Twister|
Аудио#3: Russian: 48 kHz, AC3, 2/0 (L,R) ch, 192 kbps |Многоголосый закадровый, СТС|
Аудио#4: Russian: 48 kHz, AC3, 2/0 (L,R) ch, 192 kbps avg |Многоголосый закадровый, Ren-TV|
Аудио#5: Russian: 48 kHz, AC3, 2/0 (L,R) ch, 192 kbps |Одноголосый закадровый, В. Горчаков|
Аудио#6: Russian: 48 kHz, AC3, 2/0 (L,R) ch, 192 kbps |Одноголосый закадровый, Ю. Живов|
Аудио#7: Ukrainian: 48 kHz, AC3, 2/0 (L,R) ch, 192 kbps |Многоголосый закадровый|
Аудио#8: Russian: 48 kHz, DTS, 3/2 (L,C,R,l,r) + LFE ch, 1536 kbps |Одноголосый закадровый, В. Королёв|
Аудио#9: Chinese: 48 kHz, DTS, 3/2 (L,C,R,l,r) + LFE ch, 1536 kbps

Код:

Общее
Уникальный идентификатор                 : 166410806986551902031819366420563293888 (0x7D318E3D6853A8E59E32604F5A6AF6C0)
Полное имя                               : 3 Bruce Lee - The Way Of The Dragon, 1972.mkv
Формат                                   : Matroska
Версия формата                           : Version 4
Размер файла                             : 11,8 Гбайт
Продолжительность                        : 1 ч. 38 м.
Общий поток                              : 17,2 Мбит/сек
Название фильма                          : Meng long guo jiang (1972) - Release for HDCLUB by Skazhutin
Дата кодирования                         : UTC 2020-04-21 11:47:28
Программа кодирования                    : mkvmerge v43.0.0 ('The Quartermaster') 64-bit
Библиотека кодирования                   : libebml v1.3.10 + libmatroska v1.5.2
Обложка                                  : Yes
Attachments                              : cover.jpg / xlog.txt

Видео
Идентификатор                            : 1
Формат                                   : AVC
Формат/Информация                        : Advanced Video Codec
Профиль формата                          : [email protected]
Настройки формата                        : CABAC / 5 Ref Frames
Параметр CABAC формата                   : Да
Параметр RefFrames формата               : 5 кадров
Идентификатор кодека                     : V_MPEG4/ISO/AVC
Продолжительность                        : 1 ч. 38 м.
Битрейт                                  : 12,1 Мбит/сек
Ширина                                   : 1920 пикселей
Высота                                   : 820 пикселей
Соотношение сторон                       : 2,35:1
Режим частоты кадров                     : Постоянный
Частота кадров                           : 23,976 (24000/1001) кадра/сек
Цветовое пространство                    : YUV
Субдискретизация насыщенности            : 4:2:0
Битовая глубина                          : 8 бит
Тип развёртки                            : Прогрессивная
Бит/(Пиксели*Кадры)                      : 0.320
Размер потока                            : 8,32 Гбайт (70%)
Заголовок                                : Release for HDCLUB
Библиотека кодирования                   : x264 core 122 r2184kMod 5c85e0a
Настройки программы                      : cabac=1 / ref=5 / deblock=1:-3:-3 / analyse=0x3:0x113 / me=umh / subme=11 / psy=1 / fade_compensate=0.00 / psy_rd=1.00:0.00 / mixed_ref=1 / me_range=48 / chroma_me=1 / trellis=2 / 8x8dct=1 / cqm=0 / deadzone=21,11 / fast_pskip=1 / chroma_qp_offset=-2 / threads=12 / sliced_threads=0 / nr=0 / decimate=1 / interlaced=0 / bluray_compat=0 / constrained_intra=0 / bframes=8 / b_pyramid=2 / b_adapt=2 / b_bias=0 / direct=1 / weightb=1 / open_gop=0 / weightp=2 / keyint=250 / keyint_min=23 / scenecut=40 / intra_refresh=0 / rc_lookahead=40 / rc=crf / mbtree=0 / crf=18.0000 / qcomp=0.60 / qpmin=0 / qpmax=69 / qpstep=4 / vbv_maxrate=50000 / vbv_bufsize=62500 / crf_max=0.0 / nal_hrd=none / ip_ratio=1.40 / pb_ratio=1.30 / aq=3:0.80
Язык                                     : Chinese
Default                                  : Да
Forced                                   : Нет
Цветовой диапазон                        : Limited
Коэффициенты матрицы                     : BT.709

Аудио #1
Идентификатор                            : 2
Формат                                   : DTS
Формат/Информация                        : Digital Theater Systems
Идентификатор кодека                     : A_DTS
Продолжительность                        : 1 ч. 38 м.
Вид битрейта                             : Постоянный
Битрейт                                  : 755 Кбит/сек
Каналы                                   : 6 каналов
Channel layout                           : C L R Ls Rs LFE
Частота                                  : 48,0 КГц
Частота кадров                           : 93,750 кадра/сек (512 SPF)
Битовая глубина                          : 24 бит
Метод сжатия                             : С потерями
Размер потока                            : 532 Мбайт (4%)
Заголовок                                : DTS 5.1 @ 768 kbps - Многоголосый, Superbit
Язык                                     : Russian
Default                                  : Да
Forced                                   : Нет

Аудио #2
Идентификатор                            : 3
Формат                                   : AC-3
Формат/Информация                        : Audio Coding 3
Коммерческое название                    : Dolby Digital
Идентификатор кодека                     : A_AC3
Продолжительность                        : 1 ч. 38 м.
Вид битрейта                             : Постоянный
Битрейт                                  : 384 Кбит/сек
Каналы                                   : 6 каналов
Channel layout                           : L R C LFE Ls Rs
Частота                                  : 48,0 КГц
Частота кадров                           : 31,250 кадров/сек (1536 SPF)
Битовая глубина                          : 16 бит
Метод сжатия                             : С потерями
Размер потока                            : 271 Мбайт (2%)
Заголовок                                : AC3 5.1 @ 384 kbps - Многоголосый, Twister
Язык                                     : Russian
ServiceKind/String                       : Complete Main
Default                                  : Нет
Forced                                   : Нет

Аудио #3
Идентификатор                            : 4
Формат                                   : AC-3
Формат/Информация                        : Audio Coding 3
Коммерческое название                    : Dolby Digital
Идентификатор кодека                     : A_AC3
Продолжительность                        : 1 ч. 38 м.
Вид битрейта                             : Постоянный
Битрейт                                  : 192 Кбит/сек
Каналы                                   : 2 канала
Channel layout                           : L R
Частота                                  : 48,0 КГц
Частота кадров                           : 31,250 кадров/сек (1536 SPF)
Битовая глубина                          : 16 бит
Метод сжатия                             : С потерями
Размер потока                            : 135 Мбайт (1%)
Заголовок                                : AC3 2.0 @ 192 kbps - Многоголосый, СТС
Язык                                     : Russian
ServiceKind/String                       : Complete Main
Default                                  : Нет
Forced                                   : Нет

Аудио #4
Идентификатор                            : 5
Формат                                   : AC-3
Формат/Информация                        : Audio Coding 3
Коммерческое название                    : Dolby Digital
Идентификатор кодека                     : A_AC3
Продолжительность                        : 1 ч. 38 м.
Вид битрейта                             : Постоянный
Битрейт                                  : 192 Кбит/сек
Каналы                                   : 2 канала
Channel layout                           : L R
Частота                                  : 48,0 КГц
Частота кадров                           : 31,250 кадров/сек (1536 SPF)
Битовая глубина                          : 16 бит
Метод сжатия                             : С потерями
Размер потока                            : 135 Мбайт (1%)
Заголовок                                : AC3 2.0 @ 192 kbps - Многоголосый, Ren-TV
Язык                                     : Russian
ServiceKind/String                       : Complete Main
Default                                  : Нет
Forced                                   : Нет

Аудио #5
Идентификатор                            : 6
Формат                                   : AC-3
Формат/Информация                        : Audio Coding 3
Коммерческое название                    : Dolby Digital
Идентификатор кодека                     : A_AC3
Продолжительность                        : 1 ч. 38 м.
Вид битрейта                             : Постоянный
Битрейт                                  : 192 Кбит/сек
Каналы                                   : 2 канала
Channel layout                           : L R
Частота                                  : 48,0 КГц
Частота кадров                           : 31,250 кадров/сек (1536 SPF)
Битовая глубина                          : 16 бит
Метод сжатия                             : С потерями
Размер потока                            : 135 Мбайт (1%)
Заголовок                                : AC3 2.0 @ 192 kbps - Одноголосый, В. Горчаков
Язык                                     : Russian
ServiceKind/String                       : Complete Main
Default                                  : Нет
Forced                                   : Нет

Аудио #6
Идентификатор                            : 7
Формат                                   : AC-3
Формат/Информация                        : Audio Coding 3
Коммерческое название                    : Dolby Digital
Идентификатор кодека                     : A_AC3
Продолжительность                        : 1 ч. 38 м.
Вид битрейта                             : Постоянный
Битрейт                                  : 192 Кбит/сек
Каналы                                   : 2 канала
Channel layout                           : L R
Частота                                  : 48,0 КГц
Частота кадров                           : 31,250 кадров/сек (1536 SPF)
Битовая глубина                          : 16 бит
Метод сжатия                             : С потерями
Размер потока                            : 135 Мбайт (1%)
Заголовок                                : AC3 2.0 @ 192 kbps - Одноголосый, Ю. Живов
Язык                                     : Russian
ServiceKind/String                       : Complete Main
Default                                  : Нет
Forced                                   : Нет

Аудио #7
Идентификатор                            : 8
Формат                                   : AC-3
Формат/Информация                        : Audio Coding 3
Коммерческое название                    : Dolby Digital
Идентификатор кодека                     : A_AC3
Продолжительность                        : 1 ч. 38 м.
Вид битрейта                             : Постоянный
Битрейт                                  : 192 Кбит/сек
Каналы                                   : 2 канала
Channel layout                           : L R
Частота                                  : 48,0 КГц
Частота кадров                           : 31,250 кадров/сек (1536 SPF)
Битовая глубина                          : 16 бит
Метод сжатия                             : С потерями
Размер потока                            : 135 Мбайт (1%)
Заголовок                                : AC3 2.0 @ 192 kbps - Многоголосый
Язык                                     : Ukrainian
ServiceKind/String                       : Complete Main
Default                                  : Нет
Forced                                   : Нет

Аудио #8
Идентификатор                            : 9
Формат                                   : DTS
Формат/Информация                        : Digital Theater Systems
Идентификатор кодека                     : A_DTS
Продолжительность                        : 1 ч. 38 м.
Вид битрейта                             : Постоянный
Битрейт                                  : 1509 Кбит/сек
Каналы                                   : 6 каналов
Channel layout                           : C L R Ls Rs LFE
Частота                                  : 48,0 КГц
Частота кадров                           : 93,750 кадра/сек (512 SPF)
Битовая глубина                          : 24 бит
Метод сжатия                             : С потерями
Размер потока                            : 1,04 Гбайт (9%)
Заголовок                                : DTS 5.1 @ 1536 kbps - Одноголосый, В. Королёв
Язык                                     : Russian
Default                                  : Нет
Forced                                   : Нет

Аудио #9
Идентификатор                            : 10
Формат                                   : DTS
Формат/Информация                        : Digital Theater Systems
Идентификатор кодека                     : A_DTS
Продолжительность                        : 1 ч. 38 м.
Вид битрейта                             : Постоянный
Битрейт                                  : 1509 Кбит/сек
Каналы                                   : 6 каналов
Channel layout                           : C L R Ls Rs LFE
Частота                                  : 48,0 КГц
Частота кадров                           : 93,750 кадра/сек (512 SPF)
Битовая глубина                          : 24 бит
Метод сжатия                             : С потерями
Размер потока                            : 1,04 Гбайт (9%)
Заголовок                                : DTS 5.1 @ 1536 kbps
Язык                                     : Chinese
Default                                  : Нет
Forced                                   : Нет

скриншот  скриншот  скриншот  
Входит дракон / Enter The Dragon
Год выпуска: 1973
Страна: США
Жанр: боевые искусства
Продолжительность: 1:42:33
Перевод: Многоголосый и одноголосый закадровый
Режиссер: Роберт Клоуз /Robert Clouse/
В ролях: Брюс Ли /Bruce Lee/, Джон Сэксон /John Saxon/, Ана Капри /Ahna Capri/, Шин Каин /Shih Kien/, Боб Уолл /Bob Wall/, Боло Юнг /Bolo Yeung/, Саммо Хунг /Sammo Hung/, Джеки Чан /Jackie Chan/
Сюжет: События переносят нас на остров, превращенный в крепость бандитами, открывшим там школу боевых искусств, которая является лишь ширмой, маскирующей контрабандный бизнес. Именно проникает герой Брюса Ли и становится участником жестокого турнира - захватывающего зрелища - сплав карате, дзюдо, тэквондо, тайцзицюань в постановке самого Мастера.
Качество: BDRip 1080p
Формат: MKV
ВидеоКодек: h.264
АудиоКодек: AC3, DTS
Видео: 1912x810, 23.976 fps, 14000 Kbps
Аудио#1: Russian: 48 kHz, AC3, 3/2 (L,C,R,l,r) + LFE ch, 384.00 kbps |Дубляж|
Аудио#2: Russian: 48 kHz, DTS, 3/2 (L,C,R,l,r) + LFE ch, 768.00 kbps |Многоголосый закадровый, Superbit|
Аудио#3: Russian: 48 kHz, DTS, 3/2 (L,C,R,l,r) + LFE ch, 768.00 kbps |Одноголосый закадровый, В.Королев|
Аудио#4: Russian: 48 kHz, AC3, 2/0 (L,R) ch, 192 kbps |Одноголосый закадровый, Л.Володарский|
Аудио#5: Russian: 48 kHz, AC3, 2/0 (L,R) ch, 192 kbps |Одноголосый закадровый, А.Михалёв|
Аудио#6: Russian: 48 kHz, AC3, 2/0 (L,R) ch, 192 kbps |Одноголосый закадровый, Ю.Толбин|
Аудио#7: Russian: 48 kHz, AC3, 3/2 (L,C,R,l,r) + LFE ch, 640 kbps |Одноголосый закадровый, Ю.Живов|
Аудио#8: Russian: 48 kHz, AC3, 3/2 (L,C,R,l,r) + LFE ch, 640 kbps |Одноголосый закадровый, В.Горчаков|
Аудио#9: Russian: 48 kHz, AC3, 3/2 (L,C,R,l,r) + LFE ch, 448 kbps |Одноголосый закадровый, Jakob Bellmann|
Аудио#10: English: 48 kHz, AC3, 3/2 (L,C,R,l,r) + LFE ch, 640 kbps

Код:

Общее
Уникальный идентификатор                 : 224670229546697051458529168636854416063 (0xA905E98A80B2344A961A31808DC432BF)
Полное имя                               : 4 Bruce Lee - Enter The Dragon, 1973.mkv
Формат                                   : Matroska
Версия формата                           : Version 4
Размер файла                             : 13,5 Гбайт
Продолжительность                        : 1 ч. 42 м.
Общий поток                              : 18,8 Мбит/сек
Название фильма                          : Enter the Dragon (1973) - Release for HDCLUB by Skazhutin
Дата кодирования                         : UTC 2020-04-21 11:54:50
Программа кодирования                    : mkvmerge v43.0.0 ('The Quartermaster') 64-bit
Библиотека кодирования                   : libebml v1.3.10 + libmatroska v1.5.2
Обложка                                  : Yes
Attachments                              : cover.jpg / xlog.txt

Видео
Идентификатор                            : 1
Формат                                   : AVC
Формат/Информация                        : Advanced Video Codec
Профиль формата                          : [email protected]
Настройки формата                        : CABAC / 5 Ref Frames
Параметр CABAC формата                   : Да
Параметр RefFrames формата               : 5 кадров
Идентификатор кодека                     : V_MPEG4/ISO/AVC
Продолжительность                        : 1 ч. 42 м.
Битрейт                                  : 14,0 Мбит/сек
Ширина                                   : 1912 пикселей
Высота                                   : 810 пикселей
Соотношение сторон                       : 2,35:1
Режим частоты кадров                     : Постоянный
Частота кадров                           : 23,976 (24000/1001) кадра/сек
Цветовое пространство                    : YUV
Субдискретизация насыщенности            : 4:2:0
Битовая глубина                          : 8 бит
Тип развёртки                            : Прогрессивная
Бит/(Пиксели*Кадры)                      : 0.377
Размер потока                            : 10,0 Гбайт (74%)
Заголовок                                : Release for HDCLUB
Библиотека кодирования                   : x264 core 120 r2146 bcd41db
Настройки программы                      : cabac=1 / ref=5 / deblock=1:-3:-3 / analyse=0x3:0x113 / me=umh / subme=11 / psy=1 / psy_rd=0.95:0.00 / mixed_ref=1 / me_range=48 / chroma_me=1 / trellis=2 / 8x8dct=1 / cqm=0 / deadzone=21,11 / fast_pskip=0 / chroma_qp_offset=-2 / threads=12 / sliced_threads=0 / nr=0 / decimate=0 / interlaced=0 / bluray_compat=0 / constrained_intra=0 / bframes=8 / b_pyramid=2 / b_adapt=2 / b_bias=0 / direct=3 / weightb=1 / open_gop=0 / weightp=2 / keyint=250 / keyint_min=23 / scenecut=40 / intra_refresh=0 / rc_lookahead=40 / rc=2pass / mbtree=0 / bitrate=14000 / ratetol=1.0 / qcomp=0.65 / qpmin=0 / qpmax=69 / qpstep=4 / cplxblur=20.0 / qblur=0.5 / vbv_maxrate=50000 / vbv_bufsize=62500 / nal_hrd=none / ip_ratio=1.40 / pb_ratio=1.30 / aq=2:0.80
Язык                                     : English
Default                                  : Да
Forced                                   : Нет
Цветовой диапазон                        : Limited
Коэффициенты матрицы                     : BT.709

Аудио #1
Идентификатор                            : 2
Формат                                   : AC-3
Формат/Информация                        : Audio Coding 3
Коммерческое название                    : Dolby Digital
Идентификатор кодека                     : A_AC3
Продолжительность                        : 1 ч. 42 м.
Вид битрейта                             : Постоянный
Битрейт                                  : 384 Кбит/сек
Каналы                                   : 6 каналов
Channel layout                           : L R C LFE Ls Rs
Частота                                  : 48,0 КГц
Частота кадров                           : 31,250 кадров/сек (1536 SPF)
Битовая глубина                          : 16 бит
Метод сжатия                             : С потерями
Размер потока                            : 282 Мбайт (2%)
Заголовок                                : AC3 5.1 @ 384 kbps - Дублированный
Язык                                     : Russian
ServiceKind/String                       : Complete Main
Default                                  : Да
Forced                                   : Нет

Аудио #2
Идентификатор                            : 3
Формат                                   : DTS
Формат/Информация                        : Digital Theater Systems
Идентификатор кодека                     : A_DTS
Продолжительность                        : 1 ч. 42 м.
Вид битрейта                             : Постоянный
Битрейт                                  : 755 Кбит/сек
Каналы                                   : 6 каналов
Channel layout                           : C L R Ls Rs LFE
Частота                                  : 48,0 КГц
Частота кадров                           : 93,750 кадра/сек (512 SPF)
Битовая глубина                          : 24 бит
Метод сжатия                             : С потерями
Размер потока                            : 553 Мбайт (4%)
Заголовок                                : DTS 5.1 @ 768 kbps - Многоголосный, Superbit
Язык                                     : Russian
Default                                  : Нет
Forced                                   : Нет

Аудио #3
Идентификатор                            : 4
Формат                                   : DTS
Формат/Информация                        : Digital Theater Systems
Идентификатор кодека                     : A_DTS
Продолжительность                        : 1 ч. 42 м.
Вид битрейта                             : Постоянный
Битрейт                                  : 755 Кбит/сек
Каналы                                   : 6 каналов
Channel layout                           : C L R Ls Rs LFE
Частота                                  : 48,0 КГц
Частота кадров                           : 93,750 кадра/сек (512 SPF)
Битовая глубина                          : 24 бит
Метод сжатия                             : С потерями
Размер потока                            : 553 Мбайт (4%)
Заголовок                                : DTS 5.1 @ 768 kbps - Одноголосный, В. Королев
Язык                                     : Russian
Default                                  : Нет
Forced                                   : Нет

Аудио #4
Идентификатор                            : 5
Формат                                   : AC-3
Формат/Информация                        : Audio Coding 3
Коммерческое название                    : Dolby Digital
Идентификатор кодека                     : A_AC3
Продолжительность                        : 1 ч. 42 м.
Вид битрейта                             : Постоянный
Битрейт                                  : 192 Кбит/сек
Каналы                                   : 2 канала
Channel layout                           : L R
Частота                                  : 48,0 КГц
Частота кадров                           : 31,250 кадров/сек (1536 SPF)
Битовая глубина                          : 16 бит
Метод сжатия                             : С потерями
Размер потока                            : 141 Мбайт (1%)
Заголовок                                : AC3 2.0 @ 192 kbps - Одноголосный, Л. Володарский
Язык                                     : Russian
ServiceKind/String                       : Complete Main
Default                                  : Нет
Forced                                   : Нет

Аудио #5
Идентификатор                            : 6
Формат                                   : AC-3
Формат/Информация                        : Audio Coding 3
Коммерческое название                    : Dolby Digital
Идентификатор кодека                     : A_AC3
Продолжительность                        : 1 ч. 42 м.
Вид битрейта                             : Постоянный
Битрейт                                  : 192 Кбит/сек
Каналы                                   : 2 канала
Channel layout                           : L R
Частота                                  : 48,0 КГц
Частота кадров                           : 31,250 кадров/сек (1536 SPF)
Битовая глубина                          : 16 бит
Метод сжатия                             : С потерями
Размер потока                            : 141 Мбайт (1%)
Заголовок                                : AC3 2.0 @ 192 kbps - Одноголосный, А. Михалев
Язык                                     : Russian
ServiceKind/String                       : Complete Main
Default                                  : Нет
Forced                                   : Нет

Аудио #6
Идентификатор                            : 7
Формат                                   : AC-3
Формат/Информация                        : Audio Coding 3
Коммерческое название                    : Dolby Digital
Идентификатор кодека                     : A_AC3
Продолжительность                        : 1 ч. 42 м.
Вид битрейта                             : Постоянный
Битрейт                                  : 192 Кбит/сек
Каналы                                   : 2 канала
Channel layout                           : L R
Частота                                  : 48,0 КГц
Частота кадров                           : 31,250 кадров/сек (1536 SPF)
Битовая глубина                          : 16 бит
Метод сжатия                             : С потерями
Размер потока                            : 141 Мбайт (1%)
Заголовок                                : AC3 2.0 @ 192 kbps - Одноголосный, Ю. Толбин
Язык                                     : Russian
ServiceKind/String                       : Complete Main
Default                                  : Нет
Forced                                   : Нет

Аудио #7
Идентификатор                            : 8
Формат                                   : AC-3
Формат/Информация                        : Audio Coding 3
Коммерческое название                    : Dolby Digital
Идентификатор кодека                     : A_AC3
Продолжительность                        : 1 ч. 42 м.
Вид битрейта                             : Постоянный
Битрейт                                  : 640 Кбит/сек
Каналы                                   : 6 каналов
Channel layout                           : L R C LFE Ls Rs
Частота                                  : 48,0 КГц
Частота кадров                           : 31,250 кадров/сек (1536 SPF)
Битовая глубина                          : 16 бит
Метод сжатия                             : С потерями
Размер потока                            : 469 Мбайт (3%)
Заголовок                                : AC3 5.1 @ 640 kbps - Одноголосный, Ю. Живов
Язык                                     : Russian
ServiceKind/String                       : Complete Main
Default                                  : Нет
Forced                                   : Нет

Аудио #8
Идентификатор                            : 9
Формат                                   : AC-3
Формат/Информация                        : Audio Coding 3
Коммерческое название                    : Dolby Digital
Идентификатор кодека                     : A_AC3
Продолжительность                        : 1 ч. 42 м.
Вид битрейта                             : Постоянный
Битрейт                                  : 640 Кбит/сек
Каналы                                   : 6 каналов
Channel layout                           : L R C LFE Ls Rs
Частота                                  : 48,0 КГц
Частота кадров                           : 31,250 кадров/сек (1536 SPF)
Битовая глубина                          : 16 бит
Метод сжатия                             : С потерями
Размер потока                            : 469 Мбайт (3%)
Заголовок                                : AC3 5.1 @ 640 kbps - Одноголосный, В. Горчаков
Язык                                     : Russian
ServiceKind/String                       : Complete Main
Default                                  : Нет
Forced                                   : Нет

Аудио #9
Идентификатор                            : 10
Формат                                   : AC-3
Формат/Информация                        : Audio Coding 3
Коммерческое название                    : Dolby Digital
Идентификатор кодека                     : A_AC3
Продолжительность                        : 1 ч. 42 м.
Вид битрейта                             : Постоянный
Битрейт                                  : 448 Кбит/сек
Каналы                                   : 6 каналов
Channel layout                           : L R C LFE Ls Rs
Частота                                  : 48,0 КГц
Частота кадров                           : 31,250 кадров/сек (1536 SPF)
Битовая глубина                          : 16 бит
Метод сжатия                             : С потерями
Размер потока                            : 329 Мбайт (2%)
Заголовок                                : AC3 5.1 @ 448 kbps - Одноголосный, Jakob Bellmann
Язык                                     : Russian
ServiceKind/String                       : Complete Main
Default                                  : Нет
Forced                                   : Нет

Аудио #10
Идентификатор                            : 11
Формат                                   : AC-3
Формат/Информация                        : Audio Coding 3
Коммерческое название                    : Dolby Digital
Идентификатор кодека                     : A_AC3
Продолжительность                        : 1 ч. 42 м.
Вид битрейта                             : Постоянный
Битрейт                                  : 640 Кбит/сек
Каналы                                   : 6 каналов
Channel layout                           : L R C LFE Ls Rs
Частота                                  : 48,0 КГц
Частота кадров                           : 31,250 кадров/сек (1536 SPF)
Битовая глубина                          : 16 бит
Метод сжатия                             : С потерями
Размер потока                            : 469 Мбайт (3%)
Заголовок                                : AC3 5.1 @ 640 kbps
Язык                                     : English
ServiceKind/String                       : Complete Main
Default                                  : Нет
Forced                                   : Нет

скриншот  скриншот  скриншот  
Игра смерти / Game of death
Год выпуска: 1978
Страна: США
Жанр: боевые искусства
Продолжительность: 1:41:07
Перевод: Многоголосый и одноголосый закадровый, авторский
Режиссер: Роберт Клоуз /Robert Clouse/
В ролях: Брюс Ли /Bruce Lee/, Коллин Кэмп /Colleen Camp/, Дин Джаггер /Dean Jagger/, Гиг Янг /Gig Young/, Таи Чунг Ким /Tai Chung Kim/, Биао Юэнь /Biao Yuen/
Сюжет: Могущественная корпорация, во главе со зловещим Доктором Лэнгом, пытаеться заполучить контроль за шоу-бизнесом по всему миру. Тех, кто не хочет подписывать контракт, в назидание другим убивают жестокие киллеры...Примечание: Картина начата в 1972 году, закончена после смерти Брюса Ли с помощью дублера.
Качество: BDRip 1080p
Формат: MKV
ВидеоКодек: h.264
АудиоКодек: AC3, DTS
Видео: 1908x806, 23.976 fps, 10580 Kbps
Аудио#1: Russian: 48 kHz/24-bit, DTS, 3/2 (L,C,R,l,r) + LFE ch, 768 kbps |Многоголосый закадровый, Superbit|
Аудио#2: Russian: 48 kHz, AC3, 2/0 (L,R) ch, 192 kbps |Одноголосый закадровый, В. Горчаков|
Аудио#3: Russian: 48 kHz, AC3, 2/0 (L,R) ch, 192 kbps |Одноголосый закадровый, Ю. Живов|
Аудио#4: Russian: 48 kHz, AC3, 2/0 (L,R) ch, 192 kbps |Одноголосый закадровый, М. Иванов|
Аудио#5: Russian: 48 kHz, AC3, 2/0 (L,R) ch, 192 kbps |Одноголосый закадровый, С. Кузнецов|
Аудио#6: Russian: 48 kHz/24-bit, DTS, 3/2 (L,C,R,l,r) + LFE ch, 1536 kbps |Одноголосый закадровый, А. Кашкин|
Аудио#7: Russian: 48 kHz/24-bit, DTS, 3/2 (L,C,R,l,r) + LFE ch, 1536 kbps |Одноголосый закадровый, В. Королёв|
Аудио#8: English: 48 kHz/24-bit, DTS, 3/2 (L,C,R,l,r) + LFE ch, 1536 kbps

Код:

Общее
Уникальный идентификатор                 : 23492837030290017764597460782876350095 (0x11AC8E4AF98BBF9BCBB7B294CBA2568F)
Полное имя                               : 5 Bruce Lee - Game of death, 1972-1978.mkv
Формат                                   : Matroska
Версия формата                           : Version 4
Размер файла                             : 11,7 Гбайт
Продолжительность                        : 1 ч. 41 м.
Общий поток                              : 16,6 Мбит/сек
Название фильма                          : Game of Death (1978) - Release for HDCLUB by Skazhutin
Дата кодирования                         : UTC 2020-04-21 12:06:10
Программа кодирования                    : mkvmerge v43.0.0 ('The Quartermaster') 64-bit
Библиотека кодирования                   : libebml v1.3.10 + libmatroska v1.5.2
Обложка                                  : Yes
Attachments                              : cover.jpg / xlog.txt

Видео
Идентификатор                            : 1
Формат                                   : AVC
Формат/Информация                        : Advanced Video Codec
Профиль формата                          : [email protected]
Настройки формата                        : CABAC / 5 Ref Frames
Параметр CABAC формата                   : Да
Параметр RefFrames формата               : 5 кадров
Идентификатор кодека                     : V_MPEG4/ISO/AVC
Продолжительность                        : 1 ч. 41 м.
Битрейт                                  : 10,6 Мбит/сек
Ширина                                   : 1908 пикселей
Высота                                   : 806 пикселей
Соотношение сторон                       : 2,35:1
Режим частоты кадров                     : Постоянный
Частота кадров                           : 23,976 (24000/1001) кадра/сек
Цветовое пространство                    : YUV
Субдискретизация насыщенности            : 4:2:0
Битовая глубина                          : 8 бит
Тип развёртки                            : Прогрессивная
Бит/(Пиксели*Кадры)                      : 0.287
Размер потока                            : 7,47 Гбайт (64%)
Заголовок                                : Release for HDCLUB
Библиотека кодирования                   : x264 core 122 r2183kMod c522ad1
Настройки программы                      : cabac=1 / ref=5 / deblock=1:-3:-3 / analyse=0x3:0x113 / me=umh / subme=11 / psy=1 / fade_compensate=0.00 / psy_rd=1.00:0.00 / mixed_ref=1 / me_range=48 / chroma_me=1 / trellis=2 / 8x8dct=1 / cqm=0 / deadzone=21,11 / fast_pskip=1 / chroma_qp_offset=-2 / threads=12 / sliced_threads=0 / nr=0 / decimate=1 / interlaced=0 / bluray_compat=0 / constrained_intra=0 / bframes=8 / b_pyramid=2 / b_adapt=2 / b_bias=0 / direct=1 / weightb=1 / open_gop=0 / weightp=2 / keyint=250 / keyint_min=23 / scenecut=40 / intra_refresh=0 / rc_lookahead=60 / rc=crf / mbtree=1 / crf=18.0000 / qcomp=0.70 / qpmin=0 / qpmax=69 / qpstep=4 / vbv_maxrate=50000 / vbv_bufsize=62500 / crf_max=0.0 / nal_hrd=none / ip_ratio=1.40 / aq=3:0.80
Язык                                     : English
Default                                  : Да
Forced                                   : Нет
Цветовой диапазон                        : Limited
Коэффициенты матрицы                     : BT.709

Аудио #1
Идентификатор                            : 2
Формат                                   : DTS
Формат/Информация                        : Digital Theater Systems
Идентификатор кодека                     : A_DTS
Продолжительность                        : 1 ч. 40 м.
Вид битрейта                             : Постоянный
Битрейт                                  : 755 Кбит/сек
Каналы                                   : 6 каналов
Channel layout                           : C L R Ls Rs LFE
Частота                                  : 48,0 КГц
Частота кадров                           : 93,750 кадра/сек (512 SPF)
Битовая глубина                          : 24 бит
Метод сжатия                             : С потерями
Размер потока                            : 543 Мбайт (5%)
Заголовок                                : DTS 5.1 @ 768 kbps - Многоголосный, Superbit
Язык                                     : Russian
Default                                  : Да
Forced                                   : Нет

Аудио #2
Идентификатор                            : 3
Формат                                   : AC-3
Формат/Информация                        : Audio Coding 3
Коммерческое название                    : Dolby Digital
Идентификатор кодека                     : A_AC3
Продолжительность                        : 1 ч. 40 м.
Вид битрейта                             : Постоянный
Битрейт                                  : 192 Кбит/сек
Каналы                                   : 2 канала
Channel layout                           : L R
Частота                                  : 48,0 КГц
Частота кадров                           : 31,250 кадров/сек (1536 SPF)
Битовая глубина                          : 16 бит
Метод сжатия                             : С потерями
Размер потока                            : 138 Мбайт (1%)
Заголовок                                : AC3 2.0 @ 192 kbps - Одноголосный, В. Горчаков
Язык                                     : Russian
ServiceKind/String                       : Complete Main
Default                                  : Нет
Forced                                   : Нет

Аудио #3
Идентификатор                            : 4
Формат                                   : AC-3
Формат/Информация                        : Audio Coding 3
Коммерческое название                    : Dolby Digital
Идентификатор кодека                     : A_AC3
Продолжительность                        : 1 ч. 40 м.
Вид битрейта                             : Постоянный
Битрейт                                  : 192 Кбит/сек
Каналы                                   : 2 канала
Channel layout                           : L R
Частота                                  : 48,0 КГц
Частота кадров                           : 31,250 кадров/сек (1536 SPF)
Битовая глубина                          : 16 бит
Метод сжатия                             : С потерями
Размер потока                            : 138 Мбайт (1%)
Заголовок                                : AC3 2.0 @ 192 kbps - Одноголосный, Ю. Живов
Язык                                     : Russian
ServiceKind/String                       : Complete Main
Default                                  : Нет
Forced                                   : Нет

Аудио #4
Идентификатор                            : 5
Формат                                   : AC-3
Формат/Информация                        : Audio Coding 3
Коммерческое название                    : Dolby Digital
Идентификатор кодека                     : A_AC3
Продолжительность                        : 1 ч. 40 м.
Вид битрейта                             : Постоянный
Битрейт                                  : 192 Кбит/сек
Каналы                                   : 2 канала
Channel layout                           : L R
Частота                                  : 48,0 КГц
Частота кадров                           : 31,250 кадров/сек (1536 SPF)
Битовая глубина                          : 16 бит
Метод сжатия                             : С потерями
Размер потока                            : 138 Мбайт (1%)
Заголовок                                : AC3 2.0 @ 192 kbps - Одноголосный, М. Иванов
Язык                                     : Russian
ServiceKind/String                       : Complete Main
Default                                  : Нет
Forced                                   : Нет

Аудио #5
Идентификатор                            : 6
Формат                                   : AC-3
Формат/Информация                        : Audio Coding 3
Коммерческое название                    : Dolby Digital
Идентификатор кодека                     : A_AC3
Продолжительность                        : 1 ч. 40 м.
Вид битрейта                             : Постоянный
Битрейт                                  : 192 Кбит/сек
Каналы                                   : 2 канала
Channel layout                           : L R
Частота                                  : 48,0 КГц
Частота кадров                           : 31,250 кадров/сек (1536 SPF)
Битовая глубина                          : 16 бит
Метод сжатия                             : С потерями
Размер потока                            : 138 Мбайт (1%)
Заголовок                                : AC3 2.0 @ 192 kbps - Одноголосный, С. Кузнецов
Язык                                     : Russian
ServiceKind/String                       : Complete Main
Default                                  : Нет
Forced                                   : Нет

Аудио #6
Идентификатор                            : 7
Формат                                   : DTS
Формат/Информация                        : Digital Theater Systems
Идентификатор кодека                     : A_DTS
Продолжительность                        : 1 ч. 40 м.
Вид битрейта                             : Постоянный
Битрейт                                  : 1509 Кбит/сек
Каналы                                   : 6 каналов
Channel layout                           : C L R Ls Rs LFE
Частота                                  : 48,0 КГц
Частота кадров                           : 93,750 кадра/сек (512 SPF)
Битовая глубина                          : 24 бит
Метод сжатия                             : С потерями
Размер потока                            : 1,06 Гбайт (9%)
Заголовок                                : DTS 5.1 @ 1536 kbps - Одноголосный, А. Кашкин
Язык                                     : Russian
Default                                  : Нет
Forced                                   : Нет

Аудио #7
Идентификатор                            : 8
Формат                                   : DTS
Формат/Информация                        : Digital Theater Systems
Идентификатор кодека                     : A_DTS
Продолжительность                        : 1 ч. 40 м.
Вид битрейта                             : Постоянный
Битрейт                                  : 1509 Кбит/сек
Каналы                                   : 6 каналов
Channel layout                           : C L R Ls Rs LFE
Частота                                  : 48,0 КГц
Частота кадров                           : 93,750 кадра/сек (512 SPF)
Битовая глубина                          : 24 бит
Метод сжатия                             : С потерями
Размер потока                            : 1,06 Гбайт (9%)
Заголовок                                : DTS 5.1 @ 1536 kbps - Одноголосный, В. Королёв
Язык                                     : Russian
Default                                  : Нет
Forced                                   : Нет

Аудио #8
Идентификатор                            : 9
Формат                                   : DTS
Формат/Информация                        : Digital Theater Systems
Идентификатор кодека                     : A_DTS
Продолжительность                        : 1 ч. 40 м.
Вид битрейта                             : Постоянный
Битрейт                                  : 1509 Кбит/сек
Каналы                                   : 6 каналов
Channel layout                           : C L R Ls Rs LFE
Частота                                  : 48,0 КГц
Частота кадров                           : 93,750 кадра/сек (512 SPF)
Битовая глубина                          : 24 бит
Метод сжатия                             : С потерями
Размер потока                            : 1,06 Гбайт (9%)
Заголовок                                : DTS 5.1 @ 1536 kbps
Язык                                     : English
Default                                  : Нет
Forced                                   : Нет

скриншот  скриншот  скриншот  
Игра смерти 2 / Game of death 2
Год выпуска: 1981
Страна: Гонконг
Жанр: боевые искусства
Продолжительность: 1:36:04
Перевод: Многоголосый и одноголосый закадровый, авторский
Режиссер: Нг Сиюэнь /See-Yuen Ng/, Саммо Хунг Кам-Бо /Sammo Hung Kam-Bo/, Кори Юэнь /Corey Yuen/
В ролях: Брюс Ли (Billy Lo / Lee Chen-Chiang), Таи Чунг Ким (Bobby Lo / Lee Chen-Kuo), Янг Ли Хванг (Chin Ku), Рой Хоран (Lewis), Рой Чяо (Abbot), Казанова Вон (Korean Fighter), Хой Сан Ли (Monk Fighter),Миранда Остин (Angel), Хон Юэнь Ма, Грэхэм Рейви (Unnamed guy who gets beaten up), Дэн Шварц, Юэнь Бяо (Billy Lo / Bobby Lo / Blue Staff Monk, в титрах не указан)
Сюжет: Наркомафия убивает мастера боевых искусств, и его младший брат начинает мстить преступникам. Брюс ли чуть ли не единственный актер, являющийся настоящим мастером боевых искусств. Его фильмы уже давно приобрели статус классики жанра. Он зачастую сам придумывал качественные сценарии к своим картинам, а затем умело воплощал свои идеи на больших экранах. Но из-за трагической гибели актера многие его начинания так и не получили дальнейшего развития. «Башня смерти» — фильм в котором Брюс ли можно сказать вновь оживает на экранах, ведь в картине были использованы эпизоды его поединков прежде никогда не появляющиеся в фильмах мастера. Стоит также отметить качественную работу дублеров и смелость режиссеров, взявшихся за такое непростое дело. Результатом работы стал очень качественный фильм, один из последних с участием по-настоящему великого актера.
Качество: BDRip 1080p
Формат: MKV
ВидеоКодек: h.264
АудиоКодек: AC3, DTS, DTS XLL
Видео: 1908x806, 23.976 fps, 12200 Kbps
Аудио#1: Russian: 48 kHz/24-bit, DTS, 5/1 (C,L,R,Ls,Rs) + LFE ch, 755 kbps |Многоголосый закадровый, Superbit|
Аудио#2: Russian: 48 kHz/16-bit, AC3, 2/0 (L,R) ch, 192 kbps | Одноголосый закадровый, неопознан|
Аудио#3: Russian: 48 kHz/16-bit, DTS XLL, 7/1 (C,L,R,Lb,Rb,Lss,Rss) + LFE ch, 2542 kbps | Одноголосый закадровый, В.Королев|
Аудио#4: English: 48 kHz/16-bit, DTS XLL, 7/1 (C,L,R,Lb,Rb,Lss,Rss) + LFE ch, 2518 kbps

Код:

Общее
Уникальный идентификатор                 : 233331996969963322067641677595359698989 (0xAF8A1BA58C4B75478A487D942B29E02D)
Полное имя                               : 6 Bruce Lee - Game of death 2, 1981.mkv
Формат                                   : Matroska
Версия формата                           : Version 2
Размер файла                             : 12,2 Гбайт
Продолжительность                        : 1 ч. 36 м.
Режим общего битрейта                    : Переменный
Общий поток                              : 18,2 Мбит/сек
Название фильма                          : GAME_OF_DEATH_2_1981_BD-REMUX_HDCLUB.Title0
Дата кодирования                         : UTC 2020-04-23 18:15:07
Программа кодирования                    : DVDFab 11.0.0.3
Библиотека кодирования                   : libebml v1.3.4 + libmatroska v1.4.5

Видео
Идентификатор                            : 1
Формат                                   : AVC
Формат/Информация                        : Advanced Video Codec
Профиль формата                          : [email protected]
Настройки формата                        : CABAC / 1 Ref Frames
Параметр CABAC формата                   : Да
Параметр RefFrames формата               : 1 кадр
Параметр GOP формата                     : M=1, N=24
Идентификатор кодека                     : V_MPEG4/ISO/AVC
Продолжительность                        : 1 ч. 36 м.
Вид битрейта                             : Постоянный
Битрейт                                  : 12,2 Мбит/сек
Ширина                                   : 1920 пикселей
Высота                                   : 836 пикселей
Соотношение сторон                       : 2,25:1
Режим частоты кадров                     : Постоянный
Частота кадров                           : 23,976 (24000/1001) кадра/сек
Цветовое пространство                    : YUV
Субдискретизация насыщенности            : 4:2:0
Битовая глубина                          : 8 бит
Тип развёртки                            : Прогрессивная
Бит/(Пиксели*Кадры)                      : 0.316
Размер потока                            : 8,15 Гбайт (67%)
Default                                  : Да
Forced                                   : Нет
Цветовой диапазон                        : Limited
Основные цвета                           : BT.709
Характеристики трансфера                 : BT.709
Коэффициенты матрицы                     : BT.709

Аудио #1
Идентификатор                            : 2
Формат                                   : DTS
Формат/Информация                        : Digital Theater Systems
Идентификатор кодека                     : A_DTS
Продолжительность                        : 1 ч. 35 м.
Вид битрейта                             : Постоянный
Битрейт                                  : 755 Кбит/сек
Каналы                                   : 6 каналов
Channel layout                           : C L R Ls Rs LFE
Частота                                  : 48,0 КГц
Частота кадров                           : 93,750 кадра/сек (512 SPF)
Битовая глубина                          : 24 бит
Метод сжатия                             : С потерями
Размер потока                            : 518 Мбайт (4%)
Язык                                     : Russian
Default                                  : Да
Forced                                   : Нет

Аудио #2
Идентификатор                            : 3
Формат                                   : AC-3
Формат/Информация                        : Audio Coding 3
Коммерческое название                    : Dolby Digital
Идентификатор кодека                     : A_AC3
Продолжительность                        : 1 ч. 35 м.
Вид битрейта                             : Постоянный
Битрейт                                  : 192 Кбит/сек
Каналы                                   : 2 канала
Channel layout                           : L R
Частота                                  : 48,0 КГц
Частота кадров                           : 31,250 кадров/сек (1536 SPF)
Битовая глубина                          : 16 бит
Метод сжатия                             : С потерями
Размер потока                            : 132 Мбайт (1%)
Язык                                     : Russian
ServiceKind/String                       : Complete Main
Default                                  : Нет
Forced                                   : Нет

Аудио #3
Идентификатор                            : 4
Формат                                   : DTS XLL
Формат/Информация                        : Digital Theater Systems
Коммерческое название                    : DTS-HD Master Audio
Идентификатор кодека                     : A_DTS
Продолжительность                        : 1 ч. 35 м.
Вид битрейта                             : Переменный
Битрейт                                  : 2542 Кбит/сек
Каналы                                   : 8 каналов
Channel layout                           : C L R LFE Lb Rb Lss Rss
Частота                                  : 48,0 КГц
Частота кадров                           : 93,750 кадра/сек (512 SPF)
Битовая глубина                          : 16 бит
Метод сжатия                             : Без потерь
Размер потока                            : 1,70 Гбайт (14%)
Язык                                     : Russian
Default                                  : Нет
Forced                                   : Нет

Аудио #4
Идентификатор                            : 5
Формат                                   : DTS XLL
Формат/Информация                        : Digital Theater Systems
Коммерческое название                    : DTS-HD Master Audio
Идентификатор кодека                     : A_DTS
Продолжительность                        : 1 ч. 35 м.
Вид битрейта                             : Переменный
Битрейт                                  : 2518 Кбит/сек
Каналы                                   : 8 каналов
Channel layout                           : C L R LFE Lb Rb Lss Rss
Частота                                  : 48,0 КГц
Частота кадров                           : 93,750 кадра/сек (512 SPF)
Битовая глубина                          : 16 бит
Метод сжатия                             : Без потерь
Размер потока                            : 1,69 Гбайт (14%)
Язык                                     : English
Default                                  : Нет
Forced                                   : Нет

скриншот   скриншот   скриншот  
Включайте DHT - будет быстрее!
22.04.2020 Убрал главы и субтитры. Убрал "~" и avg. ну и так... по мелочи красоту навёл. Хотел перекодировать 265м - картинка не понравилась.
24.04.2020 Добавил "Игра смерти 2"
freetor.icu



Скачать Брюс Ли. Фильмография через торрент https://i111.fastpic.ru/big/2020/0423/c4/902b9d4c01d06f644b468bd2d90efbc4.jpg Скачать фильм Брюс Ли. Фильмография через торрент бесплантно в хорошем качестве В ролях: Брюс Ли /Bruce Lee/, Мария Йи /Maria Yi/, Джеймс Тьен /James Tien/, Инь-Чиэ Хань /Yin-Chieh Han/, Малалин /Malalene/, Тони Лю ... 9.5 10 22
Info! Золотая раздача, скачанное не засчитывается.
Торрент: Зарегистрирован [2020-04-24 08:09] · скачан: 25 раз
Статус: √ проверено
Размер: 76.11 GB
Как cкачать? Как скачать Брюс Ли. Фильмография через торрент | UTorrent



Последний раз редактировалось: nobana (2020-06-19 19:34), всего редактировалось 33 раз(а)

28-11-2019 20:33  

Отключить всю рекламу на сайте

26-03-2016 20:01 Брюс Ли. Фильмография Скачать торрент  

станьте на роздачуfreetor.icu



26-03-2016 20:51 Брюс Ли. Фильмография Скачать торрент  

НАРОД! Кто первым докачает - маякните в личку и станьте на раздачу = я буду другие раздавать - куча раздач и скорость выше чем была НО на все раздачи 7 мегабит это очень мало!
Спасибо! За понимание!freetor.icu



26-03-2016 23:07 Брюс Ли. Фильмография Скачать торрент  

постараюсь помочь с раздачей,но ничего не обещаю,а за раздачу freetor.icu



26-03-2016 23:27 Брюс Ли. Фильмография Скачать торрент  

ого, вот это да, не могу мимо пройти, буду раздавать, если скачаю конечно, с моей то скоростью:Dfreetor.icu



29-03-2016 13:29 Брюс Ли. Фильмография Скачать торрент  

Качаю однозначно! Помогу с раздачей.freetor.icu



22-04-2020 11:17 Брюс Ли. Фильмография Скачать торрент  

Помогу пару днейfreetor.icu



24-04-2020 12:06 Брюс Ли. Фильмография Скачать торрент  

Годняк, спасибо!freetor.icu



24-04-2020 16:50 Брюс Ли. Фильмография Скачать торрент  

Цитата:

Хотел перекодировать 265м - картинка не понравилась

Перекодировал вашу раздачу в 265-й картинка один в один. VidCoder H.265NVЕnk в среднем 13 минут на фильм. Размер 1 файла чуть больше 3 гигов получился. Правда не все аудиодороги оставил убрал самые отвратные по звуку. Вся ваша раздача у меня получилась 17.5 гигов.freetor.icu



24-04-2020 19:13 Брюс Ли. Фильмография Скачать торрент  

bevveb писал(а):

Цитата:

Хотел перекодировать 265м - картинка не понравилась

Перекодировал вашу раздачу в 265-й картинка один в один. VidCoder H.265NVЕnk в среднем 13 минут на фильм. Размер 1 файла чуть больше 3 гигов получился. Правда не все аудиодороги оставил убрал самые отвратные по звуку. Вся ваша раздача у меня получилась 17.5 гигов.

я сидел тыркал копию этой раздачи и 265м - есть отличия в четкости - проверял на фильме "Входит дракон / Enter The Dragon"
прога DVDFab стандартный пресет - тоже выходило чуть более 3х гигов. не стал рисковать удалять исходник - его больше нигде не видно - две раздачи хранить - тоже не выход
прога DVDFab высокий пресет - выходило уже чуть более 6х гиговfreetor.icu



    Дорогой пользователь! Огромная просьба, поблагодарите релизера, оцените раздачу и оставьте свои комментарий, если Вы скачали Брюс Ли. Фильмография через торрент бесплатно! Внесите свою лепту в развитие PiratBit!
    Комментировать посты могут только пользователи прошедшие не сложную регистрацию
    Показать сообщения:    

    Брюс Ли. Фильмография через торрент
    Скачать бесплатно Брюс Ли. Фильмография
    Брюс Ли. Фильмография скачать торрент
    Брюс Ли. Фильмография смотреть онлайн
    Cкачать фильм Брюс Ли. Фильмография бесплатно
    Брюс Ли. Фильмография скачать торрент в хорошем качестве
    Брюс Ли. Фильмография смотреть онлайн бесплатно в хорошем качестве


    Вы не можете начинать темы
    Вы не можете отвечать на сообщения
    Вы не можете редактировать свои сообщения
    Вы не можете удалять свои сообщения
    Вы не можете голосовать в опросах
    Вы не можете прикреплять файлы к сообщениям
    Вы можете скачивать файлы