>

8.4

Хороший звук

6.1

MVO

6.4

Line & MVO

1

7.4

1 сезон

6.8

iTunes

7.2

1 сезон

13

6.7

1 сезон

8.3

RePack

30

Deluxe

pack

9.9

Лицензия

ВАЖНО

ИГРА 18+

pack

7.3

RePack

MK11

7.7

RePack

jed

7.8

RePack

fifa19

8.5

RePack

RDR2

RePack

NEED FOR SPEED™ PAYBACK

4 сезон

9 сезон

Бесстыжие 9 сезон

Все сериалы

все сериалы на PB.wtf

RePack

FAR CRY 5

Anonymous, доброе утро, мы катастрофически не успеваем собрать деньги на оплату серверов, помогите нам пожалуйста 5,10,15р., для нас важна любая помощь . В качестве благодарности мы отключим Вам всю рекламу на сайте (укажите свой ник в строку Ваше имя)!

×
  
Magnet ссылка

Король Сингх 2 / Singh Is Bliing (Прабхудева) [2015, боевик, драма, мелодрама, DVDRip] DVO Виктор Маринин и Селена + Sub Rus (песни) freetor.icu

Король Сингх 2 через торрент freetor.icu

Размер: 2.06 GB | Добавлен: 5 лет 8 мес. назад | Торрент скачан:17 раз
Смотреть онлайн Король Сингх 2 | Скачать    Ребята, помогите собрать деньги на оплату серверов!!!

19-12-2015 10:45 Король Сингх 2 Скачать торрент  

Король Сингх 2 / Singh Is Bliing

Год выпуска: 2015
Страна: Индия
Жанр: боевик, драма, мелодрама, комедия
Продолжительность: 02:13:34
Перевод: Любительский (двухголосый) Виктор Маринин и Селена
Субтитры: Русские (вшитые на песни)
Режиссер: Прабхудева
В ролях: Акшай Кумар (Raftaar Singh), Санни Леоне (Passenger at the Airport), Эми Джексон (Sara), Кэй Кэй Менон (Mark), Лара Датта (Emily), Прабхудева (Man in Gents Urinal), Рати Агнихотри, Мурли Шарма (Boxer), Прадип Рават (Kirpal Singh), Yograj Singh, Кунал Капур, Арфи Ламба (Pappi)
Описание:
Простой парень Рафтар не собирался торопиться со свадьбой, он жил так, как ему хотелось, а тот факт, что большинство молодых людей его возраста уже были женаты, его не особо волновал. Кроме того, он все никак не мог найти ту девушку, с которой ему бы хотелось быть, а тут еще его родители подыскивали ему совсем неподходящих девчонок. Например, в последний раз Рафтару предложили жениться на молодой особе, которая была слишком толстая, естественно, герой не мог согласиться на союз с ней. Однажды его родители не выдержали и выставили требование: либо Рафтар сочетается узами брака с этой самой девушкой, либо ему придется отправиться в Гоа, где надо будет устроиться на работу к другу его папы. Не думая долго, парень выбрал второй вариант, но и на новом месте не мог нормально справляться с возложенными на него обязанностями, то и дело валяя дурака. В это время Рафтар познакомится с прекрасной Сарой, которая оказалась в этом же городе, убегая от слишком настырного молодого человека, который очень хотел взять ее в жены, только она этого не желала. А еще этой красавице хотелось найти мать, которая должна была жить в Гоа. Не только герою понравилась Сара, девушка тоже обратила внимание на этого парня, но они никак не могли понять друг друга, ведь паренек говорил только на хинди, а девчонка знала английский. Им ничего не оставалось, как нанять переводчика, но выбранная ими девушка, видя, что молодые люди почти влюбились один в другого, решила переводить неправильно. Она добилась своей цели, Рафтар и Сара стали отдаляться, но ситуацию исправит настырный кавалер героини, который найдет ее и пожелает насильно сделать своей супругой. Само собой, герой этого не потерпит и вступится за честь Сары, за что и поплатится. Рафтар пока не знает, что та, в которую он влюбился без памяти, легко способна за себя постоять, причем она в одиночку может справиться с несколькими сильными мужчинами.
Премьера (мир): 1 октября 2015, ...
Рейтинг:

Качество: DVDRip
Формат: AVI
Видео:xvid, 720x304 (2.35:1), 1581 kbps, 23,976 fps, 0,301 bpp
Аудио Rus: AC3 / 2 ch / 48 kHz / 160 kbps / 16 bit
Аудио Hindi: AC3 / 6 ch / 48 kHz / 448 kbps / 16 bit

Код:

General
Complete name                            : C:\Users\tut\Desktop\Singh Is Bling. 2015.DVDRip.avi
Format                                   : AVI
Format/Info                              : Audio Video Interleave
Format profile                           : OpenDML
File size                                : 2.06 GiB
Duration                                 : 2h 13mn
Overall bit rate                         : 2 205 Kbps
Writing application                      : XviD4PSP 6.0 / 54.29.105

Video
ID                                       : 0
Format                                   : xvid
Codec ID                                 : xvid
Duration                                 : 2h 13mn
Bit rate                                 : 1 581 Kbps
Width                                    : 720 pixels
Height                                   : 304 pixels
Display aspect ratio                     : 2.35:1
Frame rate                               : 23.976 fps
Bits/(Pixel*Frame)                       : 0.301
Stream size                              : 1.47 GiB (72%)

Audio #1
ID                                       : 1
Format                                   : AC-3
Format/Info                              : Audio Coding 3
Mode extension                           : CM (complete main)
Codec ID                                 : 2000
Duration                                 : 2h 13mn
Bit rate mode                            : Constant
Bit rate                                 : 160 Kbps
Channel(s)                               : 2 channels
Channel positions                        : Front: L R
Sampling rate                            : 48.0 KHz
Bit depth                                : 16 bits
Compression mode                         : Lossy
Stream size                              : 153 MiB (7%)
Alignment                                : Aligned on interleaves
Interleave, duration                     : 32 ms (0.77 video frame)

Audio #2
ID                                       : 2
Format                                   : AC-3
Format/Info                              : Audio Coding 3
Mode extension                           : CM (complete main)
Codec ID                                 : 2000
Duration                                 : 2h 13mn
Bit rate mode                            : Constant
Bit rate                                 : 448 Kbps
Channel(s)                               : 6 channels
Channel positions                        : Front: L C R, Side: L R, LFE
Sampling rate                            : 48.0 KHz
Bit depth                                : 16 bits
Compression mode                         : Lossy
Stream size                              : 428 MiB (20%)
Alignment                                : Aligned on interleaves
Interleave, duration                     : 32 ms (0.77 video frame)


скриншот   скриншот   скриншот   скриншот   скриншот   скриншот  
freetor.icu



Скачать Король Сингх 2 через торрент https://pic1.kartinco.top/images/10/4gzrk.jpg Скачать, смотреть онлайн Король Сингх 2 бесплантно в хорошем качестве Описание: Простой парень Рафтар не собирался торопиться со свадьбой, он жил так, как ему хотелось, а тот факт, что большинство молодых ... 8.5 10 6
Торрент: Зарегистрирован [2015-12-19 10:45] · скачан: 17 раз
Статус: √ проверено
Размер: 2.06 GB
Как cкачать? Как скачать Король Сингх 2 через торрент | UTorrent

28-11-2019 20:33  

Отключить всю рекламу на сайте

19-12-2015 12:16 Король Сингх 2 Скачать торрент  

Эх. Без Чакраборти индийские фильмы уже не те...) Такая ностальгия ...)freetor.icu



    Дорогой пользователь! Огромная просьба, поблагодарите релизера, оцените раздачу и оставьте свои комментарий, если Вы скачали Король Сингх 2 через торрент бесплатно!
    Комментировать посты могут только пользователи прошедшие не сложную регистрацию
    Показать сообщения:    

    Король Сингх 2 через торрент
    Скачать бесплатно Король Сингх 2
    Король Сингх 2 скачать торрент
    Король Сингх 2 смотреть онлайн
    Cкачать фильм Король Сингх 2 бесплатно
    Король Сингх 2 скачать торрент в хорошем качестве
    Король Сингх 2 смотреть онлайн бесплатно в хорошем качестве


    Вы не можете начинать темы
    Вы не можете отвечать на сообщения
    Вы не можете редактировать свои сообщения
    Вы не можете удалять свои сообщения
    Вы не можете голосовать в опросах
    Вы не можете прикреплять файлы к сообщениям
    Вы можете скачивать файлы