Присоединяйтесь к нам в Telegram!, здесь всегда актуальный адрес сайта, оперативная поддержка и многое другое!!

>

5.9

iTunes

7.4

iTunes

9.4

1 сезон

1

7.4

2 сезон

7.2

iTunes

7.3

1 сезон

13

6.1

iTunes

8.3

GOG

30

ULTIMATE

pack

9.9

Лицензия

ВАЖНО

ИГРА 18+

pack

7.3

RePack

MK11

7.7

RePack

jed

7.8

RePack

fifa19

8.5

RePack

RDR2

RePack

NEED FOR SPEED™ PAYBACK

5 сезон

9 сезон

Бесстыжие 9 сезон

Все сериалы

все сериалы на PB.wtf

RePack

FAR CRY 5

Anonymous, добрый день, мы катастрофически не успеваем собрать деньги на оплату серверов, помогите нам пожалуйста 5,10,15р., для нас важна любая помощь . В качестве благодарности мы отключим Вам всю рекламу на сайте (укажите свой ник в строку Ваше имя)!

×
  
Magnet ссылка

Багровый пик / Crimson Peak (Гильермо дель Торо) [2015 г., ужасы, фэнтези, триллер, драма, мелодрама, детектив, WEB-DLRip-AVC] Дубляж Лицензия / iTunes freetor.icu

Багровый пик через торрент freetor.icu

Размер: 2.31 GB | Добавлен: 5 лет 11 мес. назад | Торрент скачан:465 раз
Смотреть онлайн Багровый пик | Скачать    Ребята, помогите собрать деньги на оплату серверов!!!

10-12-2015 17:01 Багровый пик Скачать торрент  

Багровый пик / Crimson Peak
Год выпуска » 2015
Страна » США, Канада / Legendary Pictures
Жанр » ужасы, фэнтези, триллер, драма, мелодрама, детектив
Продолжительность » 01:58:36
Перевод » Дубляж Лицензия / iTunes
Субтитры » Английские

В ролях
» Миа Васиковска, Джессика Честейн, Том Хиддлстон, Чарли Ханнэм, Джим Бивер, Берн Горман, Лесли Хоуп, Даг Джонс, Джонатан Хайд, Брюс Грэй, Наталья Терешкова, Наталья Грачёва, Сергей Смирнов, Евгений Вальц, Владимир Антоник

Режиссёр
» Гильермо дель Торо
ОПИСАНИЕ:
» Дурная слава преследует дом, что возвышается над городом. С приходом зимы он утопает в кровавых снегах. Говорят, дело в глине, проступающей на поверхность. Но ни единая душа не рискует ступить на ледяной склон... кроме нее. Она влюблена в таинственного незнакомца, живущего в древних стенах со своей сестрой. Багровый пик пробудился и уже не уснет.
• Качество » WEB-DLRip-AVC
• Формат » MKV
• Видео кодек » AVC
• Аудио кодек » AC3
• Видео » MPEG-4 AVC, 2025 Кбит/с, 1024x552,23,976 кадра/сек
• Аудио » • Русский (AC3, 6 ch, 384 Кбит/с,48,0 КГц )
• Аудио » • Английский (AC3, 6 ch, 384 Кбит/с,48,0 КГц )


Общее
Уникальный идентификатор : 181219560409583400524313628296691930922 (0x88559E277ECD999C912A12EEF985572A)
Полное имя : E:\Crimson Peak.2015.x264.WEB-DLRip.AVC.Rus.Eng.mkv
Формат : Matroska
Версия формата : Version 4 / Version 2
Размер файла : 2,31 Гбайт
Продолжительность : 1 ч. 58 м.
Общий поток : 2794 Кбит/сек
Название фильма : Crimson Peak.2015.x264.WEB-DLRip.AVC.Rus.Eng
Дата кодирования : UTC 2015-12-10 14:32:01
Программа кодирования : mkvmerge v7.9.0 ('Birds') 64bit
Библиотека кодирования : libebml v1.3.1 + libmatroska v1.4.2
_STATISTICS_WRITING_APP : mkvmerge v7.9.0 ('Birds') 64bit
_STATISTICS_WRITING_DATE_UTC : 2015-12-10 14:32:01
_STATISTICS_TAGS : BPS DURATION NUMBER_OF_FRAMES NUMBER_OF_BYTES
DURATION : 01:50:18.010000000
NUMBER_OF_FRAMES : 1217
NUMBER_OF_BYTES : 40377

Видео
Идентификатор : 1
Формат : AVC
Формат/Информация : Advanced Video Codec
Профиль формата : [email protected]
Параметр CABAC формата : Да
Параметр ReFrames формата : 11 кадров
Идентификатор кодека : V_MPEG4/ISO/AVC
Продолжительность : 1 ч. 58 м.
Битрейт : 2025 Кбит/сек
Ширина : 1024 пикселя
Высота : 552 пикселя
Соотношение сторон : 1,85:1
Режим частоты кадров : Постоянный
Частота кадров : 23,976 кадра/сек
Цветовое пространство : YUV
Субдискретизация насыщенности : 4:2:0
Битовая глубина : 8 бит
Тип развёртки : Прогрессивная
Бит/(Пиксели*Кадры) : 0.149
Размер потока : 1,63 Гбайт (71%)
Заголовок : Crimson Peak.2015.x264.WEB-DLRip.AVC.Rus.Eng.by.StarbirS
Библиотека кодирования : x264 core 148 r2597 e86f3a1
Настройки программы : cabac=1 / ref=11 / deblock=1:-2:-2 / analyse=0x3:0x113 / me=umh / subme=11 / psy=1 / psy_rd=1.05:0.00 / mixed_ref=1 / me_range=48 / chroma_me=1 / trellis=2 / 8x8dct=1 / cqm=0 / deadzone=21,11 / fast_pskip=0 / chroma_qp_offset=-2 / threads=12 / lookahead_threads=2 / sliced_threads=0 / nr=0 / decimate=0 / interlaced=0 / bluray_compat=0 / constrained_intra=0 / bframes=7 / b_pyramid=2 / b_adapt=2 / b_bias=0 / direct=3 / weightb=1 / open_gop=1 / weightp=2 / keyint=240 / keyint_min=23 / scenecut=40 / intra_refresh=0 / rc_lookahead=40 / rc=2pass / mbtree=0 / bitrate=2025 / ratetol=1.0 / qcomp=0.60 / qpmin=0 / qpmax=69 / qpstep=4 / cplxblur=20.0 / qblur=0.5 / vbv_maxrate=50000 / vbv_bufsize=62500 / nal_hrd=none / filler=0 / ip_ratio=1.40 / pb_ratio=1.30 / aq=1:0.80
Язык : English
Default : Да
Forced : Нет
_STATISTICS_WRITING_APP : mkvmerge v7.9.0 ('Birds') 64bit
_STATISTICS_WRITING_DATE_UTC : 2015-12-10 14:32:01
_STATISTICS_TAGS : BPS DURATION NUMBER_OF_FRAMES NUMBER_OF_BYTES
DURATION : 01:58:36.860000000
NUMBER_OF_FRAMES : 170634
NUMBER_OF_BYTES : 1800190727

Аудио #1
Идентификатор : 2
Формат : AC-3
Формат/Информация : Audio Coding 3
Расширение режима : CM (complete main)
Параметр Endianness формата : Big
Идентификатор кодека : A_AC3
Продолжительность : 1 ч. 58 м.
Вид битрейта : Постоянный
Битрейт : 384 Кбит/сек
Каналы : 6 каналов
Расположение каналов : Front: L C R, Side: L R, LFE
Частота : 48,0 КГц
Битовая глубина : 16 бит
Метод сжатия : С потерями
Размер потока : 326 Мбайт (14%)
Заголовок : Дублированный (iTunes)
Язык : Russian
Default : Да
Forced : Нет

Аудио #2
Идентификатор : 3
Формат : AC-3
Формат/Информация : Audio Coding 3
Расширение режима : CM (complete main)
Параметр Endianness формата : Big
Идентификатор кодека : A_AC3
Продолжительность : 1 ч. 58 м.
Вид битрейта : Постоянный
Битрейт : 384 Кбит/сек
Каналы : 6 каналов
Расположение каналов : Front: L C R, Side: L R, LFE
Частота : 48,0 КГц
Битовая глубина : 16 бит
Метод сжатия : С потерями
Размер потока : 326 Мбайт (14%)
Язык : English
Default : Нет
Forced : Нет

Текст
Идентификатор : 4
Формат : UTF-8
Идентификатор кодека : S_TEXT/UTF8
Идентификатор кодека/Информация : UTF-8 Plain Text
Язык : English
Default : Да
Forced : Нет

Меню
00:00:00.000 : en:1
00:06:02.000 : en:2
00:11:01.000 : en:3
00:15:29.000 : en:4
00:21:12.000 : en:5
00:25:52.000 : en:6
00:31:13.000 : en:7
00:39:25.000 : en:8
00:45:40.000 : en:9
00:51:56.000 : en:10
00:56:11.000 : en:11
01:02:04.000 : en:12
01:08:19.000 : en:13
01:14:24.000 : en:14
01:20:18.000 : en:15
01:25:54.000 : en:16
01:30:37.000 : en:17
01:36:09.000 : en:18
01:43:20.000 : en:19
01:51:22.000 : en:20
скриншот   скриншот   скриншот   скриншот  
freetor.icu



Скачать Багровый пик через торрент https://pic1.kartinco.top/images/10/iyfez.jpg Скачать, смотреть онлайн Багровый пик бесплантно в хорошем качестве ОПИСАНИЕ: » Дурная слава преследует дом, что возвышается над городом. С приходом зимы он утопает в кровавых снегах. Говорят, дело в глине, ... 9.7 10 15
Info! Золотая раздача, скачанное не засчитывается.
Торрент: Зарегистрирован [2015-12-10 17:01] · скачан: 465 раз
Статус: √ проверено
Размер: 2.31 GB
Как cкачать? Как скачать Багровый пик через торрент | UTorrent

% Раздел Тема Автор DL S | L
Фильмы (WEB-DL 720p, 1080p) [ 3.59 GB ] Багровый пик / Crimson Peak [2015 WEB-DL 720p / ] MihailHD Скачать
1 | 0
Фильмы 2015 [DVDrip, WEB-DLRip, HDrip] [ 2.05 GB ] Багровый пик / Crimson Peak [2015 WEB-DLRip / ] MihailHD Скачать
1 | 0
Фильмы 2015 [DVDrip, WEB-DLRip, HDrip] [ 745 MB ] Багровый пик / Crimson Peak [2015 WEB-DLRip / ] $-DRON-$ Скачать
1 | 0
Фильмы 2015 [DVDrip, WEB-DLRip, HDrip] [ 1.46 GB ] Багровый пик / Crimson Peak [2015 WEB-DLRip / ] MihailHD Скачать
1 | 0


Последний раз редактировалось: $-DRON-$ (2015-12-10 18:08), всего редактировалось 1 раз

28-11-2019 20:33  

Отключить всю рекламу на сайте

10-12-2015 17:49 Багровый пик Скачать торрент  

тех.данные не полныеfreetor.icu



10-12-2015 18:08 Багровый пик Скачать торрент  

Хороший фильм.В своём жанре...freetor.icu



10-12-2015 18:08 Багровый пик Скачать торрент  

Не заметил.извиняюсь!freetor.icu



11-12-2015 10:52 Багровый пик Скачать торрент  

Редкая дряньfreetor.icu



    Дорогой пользователь! Огромная просьба, поблагодарите релизера, оцените раздачу и оставьте свои комментарий, если Вы скачали Багровый пик через торрент бесплатно!
    Комментировать посты могут только пользователи прошедшие не сложную регистрацию
    Показать сообщения:    

    Багровый пик через торрент
    Скачать бесплатно Багровый пик
    Багровый пик скачать торрент
    Багровый пик смотреть онлайн
    Cкачать фильм Багровый пик бесплатно
    Багровый пик скачать торрент в хорошем качестве
    Багровый пик смотреть онлайн бесплатно в хорошем качестве


    Вы не можете начинать темы
    Вы не можете отвечать на сообщения
    Вы не можете редактировать свои сообщения
    Вы не можете удалять свои сообщения
    Вы не можете голосовать в опросах
    Вы не можете прикреплять файлы к сообщениям
    Вы можете скачивать файлы