Присоединяйтесь к нам в Telegram!, здесь всегда актуальный адрес сайта, оперативная поддержка и многое другое!!

>

5.9

iTunes

7.4

iTunes

9.4

1 сезон

1

7.4

2 сезон

7.2

iTunes

7.3

iTunes

13

6.1

iTunes

8.3

Пиратка

30

ULTIMATE

pack

9.9

Лицензия

ВАЖНО

ИГРА 18+

pack

7.3

RePack

MK11

7.7

RePack

jed

7.8

RePack

fifa19

8.5

RePack

RDR2

RePack

NEED FOR SPEED™ PAYBACK

5 сезон

9 сезон

Бесстыжие 9 сезон

Все сериалы

все сериалы на PB.wtf

RePack

FAR CRY 5

Anonymous, доброе утро, мы катастрофически не успеваем собрать деньги на оплату серверов, помогите нам пожалуйста 5,10,15р., для нас важна любая помощь . В качестве благодарности мы отключим Вам всю рекламу на сайте (укажите свой ник в строку Ваше имя)!

×
  
Magnet ссылка

Багровый пик / Crimson Peak (Гильермо дель Торо) [2015 г., ужасы, фэнтези, триллер, драма, мелодрама, детектив, WEB-DLRip, Дубляж Лицензия / iTunes] freetor.icu

Багровый пик через торрент freetor.icu

Размер: 745 MB | Добавлен: 5 лет 11 мес. назад | Торрент скачан:177 раз
Смотреть онлайн Багровый пик | Скачать    Ребята, помогите собрать деньги на оплату серверов!!!

10-12-2015 10:09 Багровый пик Скачать торрент  

Багровый пик / Crimson Peak
Год выпуска » 2015
Страна » США, Канада / Legendary Pictures
Жанр » ужасы, фэнтези, триллер, драма, мелодрама, детектив
Продолжительность » 01:58:36
Перевод » Дубляж Лицензия / iTunes
Субтитры » Нет

В ролях
» Миа Васиковска, Джессика Честейн, Том Хиддлстон, Чарли Ханнэм, Джим Бивер, Берн Горман, Лесли Хоуп, Даг Джонс, Джонатан Хайд, Брюс Грэй, Наталья Терешкова, Наталья Грачёва, Сергей Смирнов, Евгений Вальц, Владимир Антоник

Режиссёр
» Гильермо дель Торо
ОПИСАНИЕ:
» Дурная слава преследует дом, что возвышается над городом. С приходом зимы он утопает в кровавых снегах. Говорят, дело в глине, проступающей на поверхность. Но ни единая душа не рискует ступить на ледяной склон... кроме нее. Она влюблена в таинственного незнакомца, живущего в древних стенах со своей сестрой. Багровый пик пробудился и уже не уснет.
• Качество » WEB-DLRip
• Формат » AVI
• Видео кодек » XviD
• Аудио кодек » MP3
• Видео » XviD, 741 kb/s, 656x352,23,976 кадра/сек
• Аудио » • Русский (MP3, 128 kb/s (2 ch),48,0 КГц )


Общее
Полное имя : E:\Bagrovij.pik.2015.D.WEB-DLRip.745MB.MegaPeer.avi
Формат : AVI
Формат/Информация : Audio Video Interleave
Размер файла : 745 Мбайт
Продолжительность : 1 ч. 58 м.
Общий поток : 878 Кбит/сек
Программа кодирования : VirtualDubMod 1.5.10.3 | www.virtualdub-fr.org || (build 2550/release)
Библиотека кодирования : VirtualDubMod build 2550/release

Видео
Идентификатор : 0
Формат : MPEG-4 Visual
Профиль формата : Advanced [email protected]
Параметр BVOP формата : 1
Параметр QPel формата : Нет
Параметр GMC формата : Без точки перехода
Параметр матрицы формата : Выборочная
Идентификатор кодека : XVID
Идентификатор кодека/Подсказка : XviD
Продолжительность : 1 ч. 58 м.
Битрейт : 741 Кбит/сек
Ширина : 656 пикселей
Высота : 352 пикселя
Соотношение сторон : 1,85:1
Частота кадров : 23,976 кадра/сек
Цветовое пространство : YUV
Субдискретизация насыщенности : 4:2:0
Битовая глубина : 8 бит
Тип развёртки : Прогрессивная
Метод сжатия : С потерями
Бит/(Пиксели*Кадры) : 0.134
Размер потока : 628 Мбайт (84%)
Библиотека кодирования : XviD 73

Аудио
Идентификатор : 1
Формат : MPEG Audio
Версия формата : Version 1
Профиль формата : Layer 3
Идентификатор кодека : 55
Идентификатор кодека/Подсказка : MP3
Продолжительность : 1 ч. 58 м.
Вид битрейта : Постоянный
Битрейт : 128 Кбит/сек
Каналы : 2 канала
Частота : 48,0 КГц
Метод сжатия : С потерями
Размер потока : 109 Мбайт (15%)
Выравнивание : Соединение по промежуткам
Продолжительность промежутка : 42 мс. (1,00 видеокадр)
Время предзагрузки промежутка : 504 мс.
Библиотека кодирования : LAME3.99r
Настройки программы : -m s -V 4 -q 2 -lowpass 17 -b 128
скриншот   скриншот   скриншот  
freetor.icu



Скачать Багровый пик через торрент https://pic1.kartinco.top/images/10/iyfez.jpg Скачать, смотреть онлайн Багровый пик бесплантно в хорошем качестве ОПИСАНИЕ: » Дурная слава преследует дом, что возвышается над городом. С приходом зимы он утопает в кровавых снегах. Говорят, дело в глине, ... 9.1 10 15
Торрент: Зарегистрирован [2015-12-10 10:09] · скачан: 177 раз
Статус: √ проверено
Размер: 745 MB
Как cкачать? Как скачать Багровый пик через торрент | UTorrent

% Раздел Тема Автор DL S | L
Фильмы 2015 [DVDrip, WEB-DLRip, HDrip] [ 2.18 GB ] Багровый пик / Crimson Peak [2015 BDRip () CEE hkets1980 Скачать
1 | 0
Фильмы 2015 [DVDrip, WEB-DLRip, HDrip] [ 1.46 GB ] Багровый пик / Crimson Peak [2015 BDRip-AVC] DUB potroks Скачать
1 | 0
Фильмы (Blu-ray, BD-Remux, HDDVD) [ 44.92 GB ] Багровый пик / Crimson Peak [2015 Blu-ray] DUB Russian Mafia Скачать
1 | 0
Фильмы (Blu-ray, BD-Remux, HDDVD) [ 31.55 GB ] Багровый пик / Crimson Peak [2015 BDRemux] DUB Russian Mafia Скачать
1 | 0
Фильмы (DVD фильмы) [ 7.9 GB ] Багровый пик / Crimson Peak [2015 DVD9] R2 voovaz Скачать
1 | 0
Фильмы 2015 [DVDrip, WEB-DLRip, HDrip] [ 2.18 GB ] Багровый пик / Crimson Peak [2015 BDRip-AVC] DUB potroks Скачать
1 | 0
Фильмы 2015 [DVDrip, WEB-DLRip, HDrip] [ 1.46 GB ] Багровый пик / Crimson Peak [2015 BDRip] DUB Twi7ter Скачать
1 | 0


Последний раз редактировалось: $-DRON-$ (2015-12-10 10:25), всего редактировалось 1 раз

28-11-2019 20:33  

Отключить всю рекламу на сайте

10-12-2015 10:25 Багровый пик Скачать торрент  

$-DRON-$, http://prntscr.com/9cgrd2 убираем логотип, разрешено логотипы без прямого названия ресурса, имя релиз группы и т.д.freetor.icu



    Дорогой пользователь! Огромная просьба, поблагодарите релизера, оцените раздачу и оставьте свои комментарий, если Вы скачали Багровый пик через торрент бесплатно!
    Комментировать посты могут только пользователи прошедшие не сложную регистрацию
    Показать сообщения:    

    Багровый пик через торрент
    Скачать бесплатно Багровый пик
    Багровый пик скачать торрент
    Багровый пик смотреть онлайн
    Cкачать фильм Багровый пик бесплатно
    Багровый пик скачать торрент в хорошем качестве
    Багровый пик смотреть онлайн бесплатно в хорошем качестве


    Вы не можете начинать темы
    Вы не можете отвечать на сообщения
    Вы не можете редактировать свои сообщения
    Вы не можете удалять свои сообщения
    Вы не можете голосовать в опросах
    Вы не можете прикреплять файлы к сообщениям
    Вы можете скачивать файлы