Присоединяйтесь к нам в Telegram!, здесь всегда актуальный адрес сайта, оперативная поддержка и многое другое!!

>

5.9

iTunes

7.4

iTunes

9.4

1 сезон

1

7.4

2 сезон

7.2

iTunes

7.3

1 сезон

13

6.1

iTunes

8.3

Пиратка

30

ULTIMATE

pack

9.9

Лицензия

ВАЖНО

ИГРА 18+

pack

7.3

RePack

MK11

7.7

RePack

jed

7.8

RePack

fifa19

8.5

RePack

RDR2

RePack

NEED FOR SPEED™ PAYBACK

5 сезон

9 сезон

Бесстыжие 9 сезон

Все сериалы

все сериалы на PB.wtf

RePack

FAR CRY 5

Anonymous, доброй ночи, мы катастрофически не успеваем собрать деньги на оплату серверов, помогите нам пожалуйста 5,10,15р., для нас важна любая помощь . В качестве благодарности мы отключим Вам всю рекламу на сайте (укажите свой ник в строку Ваше имя)!

×
  
Magnet ссылка

33 / The 33 (Патрисия Ригген) [2015, Драма, биография, история WEB-DLRip-AVC] Профессиональный многоголосый [IdeaFilm] freetor.icu

33 через торрент freetor.icu

Размер: 2.18 GB | Добавлен: 5 лет 11 мес. назад | Торрент скачан:577 раз
Смотреть онлайн 33 | Скачать    Ребята, помогите собрать деньги на оплату серверов!!!

09-12-2015 20:10 33 Скачать торрент  

33 / The 33
Год выпуска » 2015
Страна » США, Чили / Alcon Entertainment, Dynamo, FABULA, Half Circle, Phoenix Pictures
Жанр » Драма, биография, история
Продолжительность » 02:07:21
Перевод » Профессиональный (многоголосый) • IdeaFilm
Субтитры » Отсутствуют

В ролях
» Антонио Бандерас, Родриго Санторо, Жюльет Бинош, Джеймс Бролин, Лу Даймонд Филлипс, Марио Касас, Джейкоб Варгас, Хуан Пабло Раба, Оскар Нунез, Теноч Уэрта

Режиссёр
» Патрисия Ригген
ОПИСАНИЕ:
» Фильм, основанный на реальных событиях, расскажет о тридцати трех чилийских шахтерах, которые в 2010 году на 69 дней оказались в ловушке под землей.
• Качество » WEB-DLRip-AVC
• Формат » MKV
• Видео кодек » AVC
• Аудио кодек » AC3
• Видео » AVC at 2 062 kb/s, 1024x422 at 23.976 fps
• Аудио » • Русский (AC3, 384 kb/s, 6 каналов, 48.0 Кгц) (IdeaFilm)



Автор рипа » • Dimmon
Уникальный идентификатор : 227188262527907027215757938013916724105 (0xAAEADE26EF0432CCA823F0EC34217B89)
Полное имя : The.33.2015.WEB DLRip-AVC.mkv
Формат : Matroska
Версия формата : Version 2
Размер файла : 2,18 Гбайт
Продолжительность : 2 ч. 7 м.
Общий поток : 2447 Кбит/сек
Дата кодирования : UTC 2015-12-09 07:47:39
Программа кодирования : mkvmerge v7.8.0 ('River Man') 32bit built on Apr 3 2015 12:11:22
Библиотека кодирования : libebml v1.3.1 + libmatroska v1.4.2

Видео
Идентификатор : 1
Формат : AVC
Формат/Информация : Advanced Video Codec
Профиль формата : [email protected]
Параметр CABAC формата : Да
Параметр ReFrames формата : 8 кадров
Идентификатор кодека : V_MPEG4/ISO/AVC
Продолжительность : 2 ч. 7 м.
Битрейт : 2062 Кбит/сек
Ширина : 1024 пикселя
Высота : 422 пикселя
Соотношение сторон : 2,40:1
Режим частоты кадров : Постоянный
Частота кадров : 23,976 кадра/сек
Цветовое пространство : YUV
Субдискретизация насыщенности : 4:2:0
Битовая глубина : 8 бит
Тип развёртки : Прогрессивная
Бит/(Пиксели*Кадры) : 0.199
Размер потока : 1,79 Гбайт (82%)
Библиотека кодирования : x264 core 146 r2538 121396c
Настройки программы : cabac=1 / ref=8 / deblock=1:-2:-2 / analyse=0x3:0x113 / me=umh / subme=9 / psy=1 / psy_rd=1.00:0.00 / mixed_ref=1 / me_range=32 / chroma_me=1 / trellis=1 / 8x8dct=1 / cqm=0 / deadzone=21,11 / fast_pskip=1 / chroma_qp_offset=-2 / threads=6 / lookahead_threads=1 / sliced_threads=0 / nr=0 / decimate=1 / interlaced=0 / bluray_compat=0 / constrained_intra=0 / bframes=3 / b_pyramid=2 / b_adapt=2 / b_bias=0 / direct=3 / weightb=1 / open_gop=0 / weightp=2 / keyint=240 / keyint_min=23 / scenecut=40 / intra_refresh=0 / rc_lookahead=40 / rc=2pass / mbtree=1 / bitrate=2062 / ratetol=1.0 / qcomp=0.60 / qpmin=0 / qpmax=69 / qpstep=4 / cplxblur=20.0 / qblur=0.5 / vbv_maxrate=14000 / vbv_bufsize=14000 / nal_hrd=none / filler=0 / ip_ratio=1.40 / aq=1:1.00
Default : Да
Forced : Нет

Аудио
Идентификатор : 2
Формат : AC-3
Формат/Информация : Audio Coding 3
Расширение режима : CM (complete main)
Параметр Endianness формата : Big
Идентификатор кодека : A_AC3
Продолжительность : 2 ч. 7 м.
Вид битрейта : Постоянный
Битрейт : 384 Кбит/сек
Каналы : 6 каналов
Расположение каналов : Front: L C R, Side: L R, LFE
Частота : 48,0 КГц
Метод сжатия : С потерями
Размер потока : 350 Мбайт (16%)
Default : Да
Forced : Нет
скриншот   скриншот   скриншот   скриншот   скриншот   скриншот  
freetor.icu



Скачать 33 через торрент https://pic1.kartinco.top/images/10/mjv2c.jpg Скачать, смотреть онлайн 33 бесплантно в хорошем качестве ОПИСАНИЕ: » Фильм, основанный на реальных событиях, расскажет о тридцати трех чилийских шахтерах, которые в 2010 году на 69 дней оказались ... 9.8 10 12
Торрент: Зарегистрирован [2015-12-09 20:10] · скачан: 577 раз
Статус: √ проверено
Размер: 2.18 GB
Как cкачать? Как скачать 33 через торрент | UTorrent

% Раздел Тема Автор DL S | L
Фото Разное [ 102 MB ] Releasing From The Ropes [2021 Формат: JPEG. 3394x5091 - 4000x6000] Скорпион1976 Скачать
1 | 0
? Оформление раздач (Кино, Видео и ТВ) [ 2.57 GB ] Голый пистолет 33 1/3: Последний выпад / Naked Gun 33 1/3: The Final Insult [1994 BDRip 720p / 60 FPS AVO [А. Михалев]] alien2015 Скачать
2 | 0
Мультсериалы [ 35.8 GB ] Звёздные войны: Войны клонов / Star Wars: The Clone Wars / Сезон: 1-7 из 7 / Серии: 1-133 из 133 [2008-2014 анимация WEB-DLRip] MVO LostFilm qwerty1234 Скачать
3 | 0
Фото Разное [ 6 MB ] The Incumbent's Anal Obsession: Paige Owens and Keira Croft / 01.05.2020) [FamiliesTied / Kink.com] [2020 Anal Ass To Mouth BDSM Big Dick Bondage Brunet Crop Family Roleplay] [1200x675 720x1080 pix 33 фото] valikkaraban Скачать
1 | 0
Приключения, Квесты, Логические [ 4.85 GB ] Deliver Us the Moon [Repack RUS|ENG|MULTi] [от xatab] bober100 Скачать
1 | 0
Зарубежная Поп музыка (сборники) (mp3) [ 2.26 GB ] VA - The Best World Ballads Vol.33 2017 / MP3 / 320 kbps / Pop Rock Blues Rap RnB bober100 Скачать
1 | 0
HD ролики [ 1.67 GB ] Honey Demon - Honey Demon Fucks Hard on the Beach [2019 Amateur Big Ass Big Booty Big Tits Blowjob Brunette Cum In Mouth Cumshot Hardcore Latina Missionary Public WEB-DL 1080p][PublicBang.com / BangBros.com] Venom Скачать
1 | 0


Последний раз редактировалось: $-DRON-$ (2015-12-16 16:57), всего редактировалось 1 раз

28-11-2019 20:33  

Отключить всю рекламу на сайте

13-12-2015 16:21 33 Скачать торрент  

кто смотрелfreetor.icu



    Дорогой пользователь! Огромная просьба, поблагодарите релизера, оцените раздачу и оставьте свои комментарий, если Вы скачали 33 через торрент бесплатно!
    Комментировать посты могут только пользователи прошедшие не сложную регистрацию
    Показать сообщения:    

    33 через торрент
    Скачать бесплатно 33
    33 скачать торрент
    33 смотреть онлайн
    Cкачать фильм 33 бесплатно
    33 скачать торрент в хорошем качестве
    33 смотреть онлайн бесплатно в хорошем качестве


    Вы не можете начинать темы
    Вы не можете отвечать на сообщения
    Вы не можете редактировать свои сообщения
    Вы не можете удалять свои сообщения
    Вы не можете голосовать в опросах
    Вы не можете прикреплять файлы к сообщениям
    Вы можете скачивать файлы