Присоединяйтесь к нам в Telegram!, здесь всегда актуальный адрес сайта, оперативная поддержка и многое другое!!

>

5.9

iTunes

7.4

iTunes

9.4

1 сезон

1

7.4

2 сезон

7.2

iTunes

7.3

1 сезон

13

6.1

iTunes

8.3

GOG

30

ULTIMATE

pack

9.9

Лицензия

ВАЖНО

ИГРА 18+

pack

7.3

RePack

MK11

7.7

RePack

jed

7.8

RePack

fifa19

8.5

RePack

RDR2

RePack

NEED FOR SPEED™ PAYBACK

5 сезон

9 сезон

Бесстыжие 9 сезон

Все сериалы

все сериалы на PB.wtf

RePack

FAR CRY 5

Anonymous, добрый день, мы катастрофически не успеваем собрать деньги на оплату серверов, помогите нам пожалуйста 5,10,15р., для нас важна любая помощь . В качестве благодарности мы отключим Вам всю рекламу на сайте (укажите свой ник в строку Ваше имя)!

×
  
Magnet ссылка

Стэнфордский тюремный эксперимент / Тюремный эксперимент в Стэнфорде / The Stanford Prison Experiment (Кайл Патрик Альварез / Kyle Patrick Alvarez) [2015, триллер, драма, биография, BDRip-AVC] Dub freetor.icu

Стэнфордский тюремный эксперимент через торрент freetor.icu

Раздают: 1 [ 0 KB/s ]
Размер: 1.51 GB | Добавлен: 3 года 9 мес. назад | Торрент скачан:202 раза
Смотреть онлайн Стэнфордский тюремный эксперимент | Скачать    Ребята, помогите собрать деньги на оплату серверов!!!

08-12-2015 16:58 Стэнфордский тюремный эксперимент Скачать торрент  

Стэнфордский тюремный эксперимент / Тюремный эксперимент в Стэнфорде
The Stanford Prison Experiment

«They were given 2 weeks. It lasted 6 days»


Страна: США
Жанр: триллер, драма, биография, история

Год выпуска: 2015
Продолжительность: 02:01:53

Перевод: Профессиональный (полное дублирование) [Пифагор]
Субтитры: нет
Оригинальная аудиодорожка: нет

Режиссер: Кайл Патрик Альварез / Kyle Patrick Alvarez

В ролях: Билли Крудап, Майкл Ангарано, Мойзес Ариас, Николас Браун, Гай Чарльз, Кейр Гилкрист, Ли Ги-хон, Томас Манн, Эзра Миллер, Логан Миллер, Тай Шеридан, Джонни Симмонс

Описание:
В основу фильма положен эксперимент американского психолога. Он выбрал добровольцев, которые сыграли роль надзирателей и заключенных, и устроил им в одном корпусе настоящую тюрьму. Люди быстро освоились и, к огромному удивлению психолога, стали вести себя непредсказуемо. К чему приведет вышедший из-под контроля эксперимент?



Релиз:

Автор рипа: stalkerok | Моя группа
Запись звука: flaSI-I. Записано со спутника Eutelsat 36A/36B (36°E) | TV1000 Premium HD (эфир 16.12.2016г.)

Сэмпл

Качество видео: BDRip-AVC [The.St[email protected]HDSky]
Формат видео: MKV
Видео кодек: AVC
Аудио кодек: AC3
Видео: 1382 Кбит/сек, 960x400 (2.40:1), 23,976 кадр/сек, AVC
Аудио: русский, 384 Кбит/сек, 48 КГц, 5.1, AC3
Навигация по главам: есть

---[Information] [30.01.2018 18:45:23] x264 [info]: frame I:1193 Avg QP:17.32 size: 38391
---[Information] [30.01.2018 18:45:23] x264 [info]: frame P:30234 Avg QP:19.19 size: 16893
---[Information] [30.01.2018 18:45:23] x264 [info]: frame B:143919 Avg QP:20.88 size: 4912

General
Unique ID : 218803338772520860235566362429594655918 (0xA49BFD7E3B456F869EC2B8E4B869DCAE)
Complete name : M:\!Rips2017\The Stanford Prison Experiment\The.Stanford.Prison.Experiment.2015.BDRip-AVC.RUS.stalkerok.new-team.mkv
Format : Matroska
Format version : Version 4 / Version 2
File size : 1.51 GiB
Duration : 2 h 1 min
Overall bit rate : 1 768 kb/s
Movie name : The Stanford Prison Experiment (2015) (Rip by stalkerok)
Encoded date : UTC 2018-01-30 15:45:58
Writing application : mkvmerge v8.6.1 ('Flying') 64bit
Writing library : libebml v1.3.3 + libmatroska v1.4.4

Video
ID : 1
Format : AVC
Format/Info : Advanced Video Codec
Format profile : [email protected]
Format settings, CABAC : Yes
Format settings, ReFrames : 12 frames
Codec ID : V_MPEG4/ISO/AVC
Duration : 2 h 1 min
Bit rate : 1 382 kb/s
Width : 960 pixels
Height : 400 pixels
Display aspect ratio : 2.40:1
Frame rate mode : Constant
Frame rate : 23.976 (24000/1001) FPS
Color space : YUV
Chroma subsampling : 4:2:0
Bit depth : 8 bits
Scan type : Progressive
Bits/(Pixel*Frame) : 0.150
Stream size : 1.18 GiB (78%)
Title : The Stanford Prison Experiment (2015) (Rip by stalkerok)
Writing library : x264 core 152 r2851kMod ba24899
Encoding settings : cabac=1 / ref=12 / deblock=1:-2:-2 / analyse=0x3:0x133 / me=umh / subme=11 / psy=1 / fade_compensate=0.00 / psy_rd=1.00:0.00 / mixed_ref=1 / me_range=32 / chroma_me=1 / trellis=2 / 8x8dct=1 / cqm=0 / deadzone=21,11 / fast_pskip=0 / chroma_qp_offset=-2 / threads=12 / lookahead_threads=3 / sliced_threads=0 / nr=0 / decimate=1 / interlaced=0 / bluray_compat=0 / constrained_intra=0 / bframes=15 / b_pyramid=2 / b_adapt=2 / b_bias=0 / direct=3 / weightb=1 / open_gop=0 / weightp=2 / keyint=240 / keyint_min=23 / scenecut=40 / intra_refresh=0 / rc_lookahead=60 / rc=crf / mbtree=0 / crf=19.9000 / qcomp=0.65 / qpmin=0 / qpmax=69 / qpstep=4 / vbv_maxrate=50000 / vbv_bufsize=62500 / crf_max=0.0 / nal_hrd=none / filler=0 / ip_ratio=1.40 / pb_ratio=1.30 / aq=3:0.85 / zones=169246,175345,q=36
Default : Yes
Forced : No

Audio
ID : 2
Format : AC-3
Format/Info : Audio Coding 3
Mode extension : CM (complete main)
Format settings, Endianness : Big
Codec ID : A_AC3
Duration : 2 h 1 min
Bit rate mode : Constant
Bit rate : 384 kb/s
Channel(s) : 6 channels
Channel positions : Front: L C R, Side: L R, LFE
Sampling rate : 48.0 kHz
Frame rate : 31.250 FPS (1536 spf)
Compression mode : Lossy
Stream size : 335 MiB (22%)
Title : DUB | Пифагор | HDTV
Language : Russian
Default : Yes
Forced : No

Menu
00:00:00.000 : en:Opening Credits
00:11:55.089 : en:Mr. Correctional Officer
00:22:32.392 : en:Visiting Day
00:32:06.507 : en:Make Your Bed
00:42:58.200 : en:New Cell Assignments
00:55:41.337 : en:Hard Time
01:05:28.883 : en:Maximum Security
01:15:33.612 : en:Provide Guidance
01:28:52.035 : en:Ready to Break
01:38:35.868 : en:Play Frankenstein
01:50:30.332 : en:Free to Leave
01:57:44.766 : en:Ending Credits
скриншот   скриншот   скриншот   скриншот   скриншот   скриншот   скриншот   скриншот  
freetor.icu



Скачать Стэнфордский тюремный эксперимент через торрент http://i6.imageban.ru/out/2017/09/18/2ff75c0c358795c5946784cc1680714d.png Скачать, смотреть онлайн Стэнфордский тюремный эксперимент бесплантно в хорошем качестве Описание:В основу фильма положен эксперимент американского психолога. Он выбрал добровольцев, которые сыграли роль надзирателей и ... 9.2 10 14
Info! Золотая раздача, скачанное не засчитывается.
Торрент: Зарегистрирован [2018-01-31 12:16] · скачан: 202 раз
Статус: √ проверено
Размер: 1.51 GB
Как cкачать? Как скачать Стэнфордский тюремный эксперимент через торрент | UTorrent

% Раздел Тема Автор DL S | L
Фильмы 2015 [DVDrip, WEB-DLRip, HDrip] [ 745 MB ] Стэнфордский тюремный эксперимент / Тюремный эксперимент в Стэнфорде / The Stanford Prison Experiment [2015 биография BDRip-AVC] Dub sokol_ok Скачать
2 | 0
Фильмы 2015 [DVDrip, WEB-DLRip, HDrip] [ 2.77 GB ] Стэнфордский тюремный эксперимент / Тюремный эксперимент в Стэнфорде / The Stanford Prison Experiment [2015 биография BDRip-AVC] Dub sokol_ok Скачать
3 | 0


Последний раз редактировалось: sokol_ok (2015-12-08 17:17), всего редактировалось 1 раз

28-11-2019 20:33  

Отключить всю рекламу на сайте

31-01-2018 12:17 Стэнфордский тюремный эксперимент Скачать торрент  

Замена рипа и звука на дубляжfreetor.icu



    Дорогой пользователь! Огромная просьба, поблагодарите релизера, оцените раздачу и оставьте свои комментарий, если Вы скачали Стэнфордский тюремный эксперимент через торрент бесплатно!
    Комментировать посты могут только пользователи прошедшие не сложную регистрацию
    Показать сообщения:    

    Стэнфордский тюремный эксперимент через торрент
    Скачать бесплатно Стэнфордский тюремный эксперимент
    Стэнфордский тюремный эксперимент скачать торрент
    Стэнфордский тюремный эксперимент смотреть онлайн
    Cкачать фильм Стэнфордский тюремный эксперимент бесплатно
    Стэнфордский тюремный эксперимент скачать торрент в хорошем качестве
    Стэнфордский тюремный эксперимент смотреть онлайн бесплатно в хорошем качестве


    Вы не можете начинать темы
    Вы не можете отвечать на сообщения
    Вы не можете редактировать свои сообщения
    Вы не можете удалять свои сообщения
    Вы не можете голосовать в опросах
    Вы не можете прикреплять файлы к сообщениям
    Вы можете скачивать файлы