Присоединяйтесь к нам в Telegram!, здесь всегда актуальный адрес сайта, оперативная поддержка и многое другое!!

>

5.9

iTunes

7.4

iTunes

9.4

1 сезон

1

7.4

2 сезон

7.2

iTunes

7.3

iTunes

13

6.1

iTunes

8.3

Пиратка

30

ULTIMATE

pack

9.9

Лицензия

ВАЖНО

ИГРА 18+

pack

7.3

RePack

MK11

7.7

RePack

jed

7.8

RePack

fifa19

8.5

RePack

RDR2

RePack

NEED FOR SPEED™ PAYBACK

5 сезон

9 сезон

Бесстыжие 9 сезон

Все сериалы

все сериалы на PB.wtf

RePack

FAR CRY 5

Anonymous, доброе утро, мы катастрофически не успеваем собрать деньги на оплату серверов, помогите нам пожалуйста 5,10,15р., для нас важна любая помощь . В качестве благодарности мы отключим Вам всю рекламу на сайте (укажите свой ник в строку Ваше имя)!

×
  
Magnet ссылка

Вымирание / Extinction (Мигель Анхель Вивас) [2015 г., ужасы, фантастика, драма, HDRip, Профессиональный многоголосый закадровый "iTunes"] freetor.icu

Вымирание через торрент freetor.icu

Размер: 721 MB | Добавлен: 6 лет назад | Торрент скачан:86 раз
Смотреть онлайн Вымирание | Скачать    Ребята, помогите собрать деньги на оплату серверов!!!

07-12-2015 18:19 Вымирание Скачать торрент  

Вымирание / Extinction
Год выпуска: 2015
Страна: Испания, США, Венгрия, Франция / La Ferme! Productions, Laokoon Filmgroup, Ombra Films
Жанр: ужасы, фантастика, драма
Продолжительность: 01:52:59
Перевод: Профессиональный многоголосый закадровый (iTunes)

Режиссер: Мигель Анхель Вивас

IMDB 5.80 (5575)


В ролях: Мэттью Фокс, Джеффри Донован, Куинн Маккоулган, Валерия Веро, Клара Лаго, Eduardo Fedriani, Мэтт Девере, Алекс Хафнер, Джереми Вилер, Katharine Bubbear

Описание: После нескольких сотен тысяч лет эволюции и превосходства, люди были почти стерты с лица Земли. В течение всего лишь нескольких дней инфекция превратила их в диких существ без интеллекта, они стали злыми и безжалостными. Через семь лет после этого, мы находим небольшой городок — Harmony, покрытый многолетними снегами. Двое мужчин, давние друзья Патрик и Джек, и дочь Джека, Лу, — единственные оставшиеся в живых. Тем не менее, они не общаются или даже не признают друг друга. Что-то ужасное произошло между ними и глубокая неумолимая ненависть прекратила их дружбу давным-давно.

Качество: HDRip
Формат: AVI
Видео кодек: XviD
Аудио кодек: MP3
Видео: 640x272 (2.35:1), 24.000 fps, XviD build 50 ~754 kbps avg, 0.18 bit/pixel
Аудио: 48 kHz, MPEG Layer 3, 2 ch, ~128.00 kbps avg

Общее
Полное имя : F:\кино\Вымирание.2015.HDRip.700mb.avi
Формат : AVI
Формат/Информация : Audio Video Interleave
Размер файла : 721 Мбайт
Продолжительность : 1 ч. 52 м.
Общий поток : 892 Кбит/сек
Программа кодирования : VirtualDubMod 1.5.10.3 | www.virtualdub-fr.org || (build 2550/release)
Библиотека кодирования : VirtualDubMod build 2550/release

Видео
Идентификатор : 0
Формат : MPEG-4 Visual
Профиль формата : Advanced [email protected]
Параметр BVOP формата : 2
Параметр QPel формата : Нет
Параметр GMC формата : Без точки перехода
Параметр матрицы формата : Default (H.263)
Идентификатор кодека : XVID
Идентификатор кодека/Подсказка : XviD
Продолжительность : 1 ч. 52 м.
Битрейт : 755 Кбит/сек
Ширина : 640 пикселей
Высота : 272 пикселя
Соотношение сторон : 2,35:1
Частота кадров : 24,000 кадра/сек
Цветовое пространство : YUV
Субдискретизация насыщенности : 4:2:0
Битовая глубина : 8 бит
Тип развёртки : Прогрессивная
Метод сжатия : С потерями
Бит/(Пиксели*Кадры) : 0.181
Размер потока : 610 Мбайт (85%)
Библиотека кодирования : XviD 1.2.1 (UTC 2008-12-04)

Аудио
Идентификатор : 1
Формат : MPEG Audio
Версия формата : Version 1
Профиль формата : Layer 3
Режим : Joint stereo
Идентификатор кодека : 55
Идентификатор кодека/Подсказка : MP3
Продолжительность : 1 ч. 52 м.
Вид битрейта : Постоянный
Битрейт : 128 Кбит/сек
Каналы : 2 канала
Частота : 48,0 КГц
Метод сжатия : С потерями
Размер потока : 103 Мбайт (14%)
Выравнивание : Соединение по промежуткам
Продолжительность промежутка : 42 мс. (1,00 видеокадр)
Время предзагрузки промежутка : 504 мс.
Библиотека кодирования : LAME3.99r
Настройки программы : -m j -V 4 -q 2 -lowpass 17 -b 128

freetor.icu



Скачать Вымирание через торрент https://pic.kartinco.top/images/11/cbjo1.jpg Скачать, смотреть онлайн Вымирание бесплантно в хорошем качестве Описание: После нескольких сотен тысяч лет эволюции и превосходства, люди были почти стерты с лица Земли. В течение всего лишь нескольких ... 10 10 5
Торрент: Зарегистрирован [2015-12-07 18:19] · скачан: 86 раз
Статус: # сомнительно
Размер: 721 MB
Как cкачать? Как скачать Вымирание через торрент | UTorrent

% Раздел Тема Автор DL S | L
T Фильмы (мультфильмы) cо спонсором показа (Новинки AVI/MKV) [ 1.31 GB ] Шангри-Ла: На грани вымирания / Shangri-La: Near Extinction [2018 WEB-DLRip Любительский ] oleg8 Скачать
1 | 0
Документальные фильмы и телепередачи [ 2.68 GB ] Гонка на вымирание / Racing Extinction [2015 документальный BDRip 720p] [многоголосый]] max199200 Скачать
1 | 0
Фильмы 2015 [DVDrip, WEB-DLRip, HDrip] [ 1.41 GB ] Вымирание / Extinction [2015 BDRip-AVC] MVO potroks Скачать
2 | 0
Фильмы 2015 [DVDrip, WEB-DLRip, HDrip] [ 1.41 GB ] Вымирание / Extinction [2015 Испания Венгрия BDRip] MVO Twi7ter Скачать
1 | 0
R.G. Resident & PiratVoice - Фильмы, Видео [ 7.94 GB ] Вымирание / Extinction [2015 BDRip 1080p многоголосый R.G.Resident schultz Скачать
1 | 0
Фильмы 2015 [DVDrip, WEB-DLRip, HDrip] [ 2.13 GB ] Вымирание / Extinction [2015 BDRip-AVC] MVO potroks Скачать
2 | 0
Документальные фильмы и телепередачи [ 1.45 GB ] Гонка на вымирание / Racing Extinction [2015 документальный BDRip-AVC от _denis_100 / NNNB] MVO _denis_100 Скачать
1 | 0

28-11-2019 20:33  

Отключить всю рекламу на сайте

07-12-2015 18:32 Вымирание Скачать торрент  

Кто смотрел отпишитесь,стоит или не стоит скачивать.freetor.icu



07-12-2015 18:35 Вымирание Скачать торрент  

мне понравился фильм вечерком глянуть самое тоfreetor.icu



07-12-2015 19:16 Вымирание Скачать торрент  

Хорошее кино.freetor.icu



    Дорогой пользователь! Огромная просьба, поблагодарите релизера, оцените раздачу и оставьте свои комментарий, если Вы скачали Вымирание через торрент бесплатно!
    Комментировать посты могут только пользователи прошедшие не сложную регистрацию
    Показать сообщения:    

    Вымирание через торрент
    Скачать бесплатно Вымирание
    Вымирание скачать торрент
    Вымирание смотреть онлайн
    Cкачать фильм Вымирание бесплатно
    Вымирание скачать торрент в хорошем качестве
    Вымирание смотреть онлайн бесплатно в хорошем качестве


    Вы не можете начинать темы
    Вы не можете отвечать на сообщения
    Вы не можете редактировать свои сообщения
    Вы не можете удалять свои сообщения
    Вы не можете голосовать в опросах
    Вы не можете прикреплять файлы к сообщениям
    Вы можете скачивать файлы