>

5.6

iTunes

6.1

MVO

5.7

MVO

1

7.4

1 сезон

6.8

iTunes

7.2

1 сезон

13

6.7

1 сезон

8.3

RePack

30

Deluxe

pack

9.9

Лицензия

ВАЖНО

ИГРА 18+

pack

7.3

RePack

MK11

7.7

RePack

jed

7.8

RePack

fifa19

8.5

RePack

RDR2

RePack

NEED FOR SPEED™ PAYBACK

4 сезон

9 сезон

Бесстыжие 9 сезон

Все сериалы

все сериалы на PB.wtf

RePack

FAR CRY 5

Anonymous, добрый вечер, мы катастрофически не успеваем собрать деньги на оплату серверов, помогите нам пожалуйста 5,10,15р., для нас важна любая помощь . В качестве благодарности мы отключим Вам всю рекламу на сайте (укажите свой ник в строку Ваше имя)!

×
  
Magnet ссылка

Наша неполная история / Hamari Adhuri Kahaani (Мохит Сури) [2015, драма, HDRip, Профессиональный (многоголосый) [SDI Media] freetor.icu

Наша неполная история через торрент freetor.icu

Размер: 1.75 GB | Добавлен: 5 лет 9 мес. назад | Торрент скачан:61 раз
Смотреть онлайн Наша неполная история | Скачать    Ребята, помогите собрать деньги на оплату серверов!!!

07-12-2015 10:04 Наша неполная история Скачать торрент  


Наша неполная история / Hamari Adhuri Kahaani


ИНФОРМАЦИЯ:
Год выпуска:2015
Страна: Индия
Жанр: драма
Продолжительность: 02:09:08
Перевод: Профессиональный (многоголосый)[SDI Media]
Режиссер: Мохит Сури

В Ролях:


Эмран Хашми (Aarav Ruparel), Видья Балан (Vasudha), Раджкумар Рао (Hari Prasad), Амала (Rohini), Захари Соффин (Journalist), Madhurima Tuli (Avni), Нарендра Джха (ACP Patil), Намит Дас (Saanjh Prasad grown up), Sarah Khan (Naila), Сухасини Малай (Hari's mother), Prabal Panjabi (Apurva), Удей Чандра

Описание:
Васудха работает флористом в одном из престижных отелей. Арав - бизнесмен, владелец ста восьми отелей, захотел купить еще один - Палас, где работает Васудха. Их встреча неизбежна, но что принесет она после? Любовь, страдания, ненависть? Ответы кроются в прошлом их судеб. Но суждено ли нам узнать всё? Ведь история неполная...

  • Мировая премьера:11 июня 2015

    ТЕХ.ДАННЫЕ:
    Качество: HDRip
    Формат: AVI
    Видео: XviD, 720x304 (2.35:1), 1660 kbps, 24 fps, 0,316 bpp
    Аудио: AC3 / 2.0 / 48 kHz / 192 kbps / 16 bit

    General
    Complete name : D:\Торенты\Neokonchenniy.Roman.2015.HDRip.XviD.oktober.avi
    Format : AVI
    Format/Info : Audio Video Interleave
    File size : 1.75 GiB
    Duration : 2h 9mn
    Overall bit rate : 1 938 Kbps
    Writing application : VirtualDubMod 1.5.10.2 (build 2540/release)
    Writing library : VirtualDubMod build 2540/release

    Video
    ID : 0
    Format : MPEG-4 Visual
    Format profile : Advanced Simple@L5
    Format settings, BVOP : 1
    Format settings, QPel : No
    Format settings, GMC : No warppoints
    Format settings, Matrix : Default (MPEG)
    Codec ID : XVID
    Codec ID/Hint : XviD
    Duration : 2h 9mn
    Bit rate : 1 661 Kbps
    Width : 720 pixels
    Height : 304 pixels
    Display aspect ratio : 2.35:1
    Frame rate : 24.000 fps
    Color space : YUV
    Chroma subsampling : 4:2:0
    Bit depth : 8 bits
    Scan type : Progressive
    Compression mode : Lossy
    Bits/(Pixel*Frame) : 0.316
    Stream size : 1.50 GiB (86%)
    Writing library : XviD 73

    Audio
    ID : 1
    Format : AC-3
    Format/Info : Audio Coding 3
    Mode extension : CM (complete main)
    Codec ID : 2000
    Duration : 2h 9mn
    Bit rate mode : Constant
    Bit rate : 192 Kbps
    Channel(s) : 2 channels
    Channel positions : Front: L R
    Sampling rate : 48.0 KHz
    Bit depth : 16 bits
    Compression mode : Lossy
    Stream size : 177 MiB (10%)
    Alignment : Split accross interleaves
    Скриншоты:

    © Оформление by .::Ворон::.
    freetor.icu



  • Скачать Наша неполная история через торрент https://pic1.kartinco.top/images/61/ordi9.jpg Скачать, смотреть онлайн Наша неполная история бесплантно в хорошем качестве Описание: Васудха работает флористом в одном из престижных отелей. Арав - бизнесмен, владелец ста восьми отелей, захотел купить еще один - ... 9.7 10 7
    Торрент: Зарегистрирован [2015-12-07 10:04] · скачан: 61 раз
    Статус: √ проверено
    Размер: 1.75 GB
    Как cкачать? Как скачать Наша неполная история через торрент | UTorrent

    % Раздел Тема Автор DL S | L
    Индийское кино [ 8.57 GB ] Наша неполная история / Hamari Adhuri Kahaani [2015 BDRip 1080p [SDI Media] Ворон Скачать
    1 | 0

    28-11-2019 20:33  

    Отключить всю рекламу на сайте

      Дорогой пользователь! Огромная просьба, поблагодарите релизера, оцените раздачу и оставьте свои комментарий, если Вы скачали Наша неполная история через торрент бесплатно!
      Комментировать посты могут только пользователи прошедшие не сложную регистрацию
      Показать сообщения:    

      Наша неполная история через торрент
      Скачать бесплатно Наша неполная история
      Наша неполная история скачать торрент
      Наша неполная история смотреть онлайн
      Cкачать фильм Наша неполная история бесплатно
      Наша неполная история скачать торрент в хорошем качестве
      Наша неполная история смотреть онлайн бесплатно в хорошем качестве


      Вы не можете начинать темы
      Вы не можете отвечать на сообщения
      Вы не можете редактировать свои сообщения
      Вы не можете удалять свои сообщения
      Вы не можете голосовать в опросах
      Вы не можете прикреплять файлы к сообщениям
      Вы можете скачивать файлы