Присоединяйтесь к нам в Telegram!, здесь всегда актуальный адрес сайта, оперативная поддержка и многое другое!!

>

5.9

iTunes

7.4

iTunes

9.4

1 сезон

1

7.4

2 сезон

7.2

iTunes

7.3

1 сезон

13

6.1

iTunes

8.3

GOG

30

ULTIMATE

pack

9.9

Лицензия

ВАЖНО

ИГРА 18+

pack

7.3

RePack

MK11

7.7

RePack

jed

7.8

RePack

fifa19

8.5

RePack

RDR2

RePack

NEED FOR SPEED™ PAYBACK

5 сезон

9 сезон

Бесстыжие 9 сезон

Все сериалы

все сериалы на PB.wtf

RePack

FAR CRY 5

Anonymous, доброй ночи, мы катастрофически не успеваем собрать деньги на оплату серверов, помогите нам пожалуйста 5,10,15р., для нас важна любая помощь . В качестве благодарности мы отключим Вам всю рекламу на сайте (укажите свой ник в строку Ваше имя)!

×
  
Magnet ссылка

Такси / Taxi (Джафар Панахи) [2015, драма, комедия, WEB-DLRip, Профессиональный многоголосый [Лицензия / iTunes] freetor.icu

Такси через торрент freetor.icu

Размер: 1.37 GB | Добавлен: 6 лет назад | Торрент скачан:330 раз
Смотреть онлайн Такси | Скачать    Ребята, помогите собрать деньги на оплату серверов!!!

02-12-2015 20:08 Такси Скачать торрент  


Такси / Taxi


ИНФОРМАЦИЯ:
Год выпуска:2015
Страна: Иран
Жанр: драма, комедия
Продолжительность: 01:21:07
Перевод: Профессиональный многоголосый [Лицензия / iTunes]
Режиссер: Джафар Панахи

В Ролях:
Джафар Панахи

Описание:
Желтое такси колесит по ярким и красочным улицам Тегерана. В такси садятся разнообразные пассажиры, каждый из которых искренне выражает свои взгляды во время беседы с водителем. А водителем является не кто иной, как сам режиссер фильма Джафар Панахи.

  • Мировая премьера:6 февраля 2015

    ТЕХ.ДАННЫЕ:
    Качество: WEB-DLRip
    Формат: AVI
    Видео: XviD, 720x400 (16:9), 1921 kbps, 24 fps, 0,278 bpp
    Аудио: AC3 / 5.1 / 48 kHz / 384 kbps / 16 bit


    General
    Complete name : D:\Торенты\T4xi.2015.P.WEB-DLRip.1400MB.avi
    Format : AVI
    Format/Info : Audio Video Interleave
    File size : 1.37 GiB
    Duration : 1h 21mn
    Overall bit rate : 2 410 Kbps
    Writing application : VirtualDubMod 1.5.10.3 | www.virtualdub-fr.org || (build 2550/release)
    Writing library : VirtualDubMod build 2550/release

    Video
    ID : 0
    Format : MPEG-4 Visual
    Format profile : Advanced [email protected]
    Format settings, BVOP : 2
    Format settings, QPel : No
    Format settings, GMC : No warppoints
    Format settings, Matrix : Default (MPEG)
    Codec ID : XVID
    Codec ID/Hint : XviD
    Duration : 1h 21mn
    Bit rate : 1 922 Kbps
    Width : 720 pixels
    Height : 400 pixels
    Display aspect ratio : 16:9
    Frame rate : 24.000 fps
    Color space : YUV
    Chroma subsampling : 4:2:0
    Bit depth : 8 bits
    Scan type : Progressive
    Compression mode : Lossy
    Bits/(Pixel*Frame) : 0.278
    Stream size : 1.09 GiB (80%)
    Writing library : XviD 1.2.1 (UTC 2008-12-04)

    Audio
    ID : 1
    Format : AC-3
    Format/Info : Audio Coding 3
    Mode extension : CM (complete main)
    Codec ID : 2000
    Duration : 1h 21mn
    Bit rate mode : Constant
    Bit rate : 384 Kbps
    Channel(s) : 6 channels
    Channel positions : Front: L C R, Side: L R, LFE
    Sampling rate : 48.0 KHz
    Bit depth : 16 bits
    Compression mode : Lossy
    Stream size : 223 MiB (16%)
    Alignment : Split accross interleaves
    Скриншоты:

    © Оформление by .::Ворон::.
    freetor.icu



  • Скачать Такси через торрент https://pic1.kartinco.top/images/61/ordi9.jpg Скачать, смотреть онлайн Такси бесплантно в хорошем качестве Описание: Желтое такси колесит по ярким и красочным улицам Тегерана. В такси садятся разнообразные пассажиры, каждый из которых искренне ... 9.6 10 14
    Торрент: Зарегистрирован [2015-12-02 20:08] · скачан: 330 раз
    Статус: √ проверено
    Размер: 1.37 GB
    Как cкачать? Как скачать Такси через торрент | UTorrent

    % Раздел Тема Автор DL S | L
    Фильмы [HD 720p, 1080p] (Хороший звук DUB, MVO) [ 11.09 GB ] Такси 4 / Taxi 4 [2007 BDRip 1080p] +DVO+MVO [Director's Cut] Ворон Скачать
    1 | 0
    Сборники и Сиквелы (48-60 fps) [ 12.94 GB ] Такси: Квадрология / Taxi: Quadrilogy [1998-2007 BDRip-AVC 60fps DUB MVO DVO] от R.G. HD-Films Tiberiumsun69 Скачать
    6 | 0
    Классика зарубежного кино [ 3.85 GB ] Такси прицеп и коррида / Taxi Roulotte et Corrida [1958 BDRip 720p by msltel] 2 x MVO msltel Скачать
    1 | 0
    Классика зарубежного кино [ 9.5 GB ] Такси прицеп и коррида / Taxi Roulotte et Corrida [1958 BDRip 1080p by msltel] 2 x MVO msltel Скачать
    1 | 0
    Фильмы 2018 [DVDrip, WEB-DLRip, HDrip] (DUB, MVO) [ 1.42 GB ] Такси 5 / Taxi 5 [2018 BDRip] bober100 Скачать
    1 | 0
    Фильмы 2018 [DVDrip, WEB-DLRip, HDrip] (DUB, MVO) [ 746 MB ] Такси 5 / Taxi 5 [2018 BDRip] bober100 Скачать
    1 | 0

    28-11-2019 20:33  

    Отключить всю рекламу на сайте

    03-12-2015 06:07 Такси Скачать торрент  

    Как фильм, ребята??freetor.icu



    03-12-2015 12:15 Такси Скачать торрент  

    норм фильмfreetor.icu



    03-12-2015 15:40 Такси Скачать торрент  

    Стоит посмотреть, хоть и "тривиальные мысли", но справедливо и правдиво!freetor.icu



      Дорогой пользователь! Огромная просьба, поблагодарите релизера, оцените раздачу и оставьте свои комментарий, если Вы скачали Такси через торрент бесплатно!
      Комментировать посты могут только пользователи прошедшие не сложную регистрацию
      Показать сообщения:    

      Такси через торрент
      Скачать бесплатно Такси
      Такси скачать торрент
      Такси смотреть онлайн
      Cкачать фильм Такси бесплатно
      Такси скачать торрент в хорошем качестве
      Такси смотреть онлайн бесплатно в хорошем качестве


      Вы не можете начинать темы
      Вы не можете отвечать на сообщения
      Вы не можете редактировать свои сообщения
      Вы не можете удалять свои сообщения
      Вы не можете голосовать в опросах
      Вы не можете прикреплять файлы к сообщениям
      Вы можете скачивать файлы