Присоединяйтесь к нам в Telegram!, здесь всегда актуальный адрес сайта, оперативная поддержка и многое другое!!

>

5.9

iTunes

7.4

iTunes

9.4

1 сезон

1

7.4

2 сезон

7.2

iTunes

7.3

1 сезон

13

6.1

iTunes

8.3

Пиратка

30

ULTIMATE

pack

9.9

Лицензия

ВАЖНО

ИГРА 18+

pack

7.3

RePack

MK11

7.7

RePack

jed

7.8

RePack

fifa19

8.5

RePack

RDR2

RePack

NEED FOR SPEED™ PAYBACK

5 сезон

9 сезон

Бесстыжие 9 сезон

Все сериалы

все сериалы на PB.wtf

RePack

FAR CRY 5

Anonymous, доброй ночи, мы катастрофически не успеваем собрать деньги на оплату серверов, помогите нам пожалуйста 5,10,15р., для нас важна любая помощь . В качестве благодарности мы отключим Вам всю рекламу на сайте (укажите свой ник в строку Ваше имя)!

×
  
Magnet ссылка

Безумный Макс: Дорога ярости / Mad Max: Fury Road (Джордж Миллер ) [2015, боевик, фантастика, приключения, HDRip] Дубляж + Sub freetor.icu

Безумный Макс: Дорога ярости через торрент freetor.icu

Размер: 751 MB | Добавлен: 6 лет назад | Торрент скачан:107 раз
Смотреть онлайн Безумный Макс: Дорога ярости | Скачать    Ребята, помогите собрать деньги на оплату серверов!!!

01-12-2015 10:03 Безумный Макс: Дорога ярости Скачать торрент  

Безумный Макс: Дорога ярости / Mad Max: Fury Road
Год выпуска: 2015
Страна: Австралия, США
Жанр: боевик, фантастика, приключения

Продолжительность: 02:00:23
Перевод: Дубляж
Субтитры: русские, вшитые неотключаемые
Режиссер: Джордж Миллер
В ролях: Том Харди (Max Rockatansky), Шарлиз Терон (Imperator Furiosa), Николас Холт (Nux), Хью Кияс-Бёрн (Immortan Joe), Райли Кио (Capable), Роузи Хантингтон-Уайтли (The Splendid Angharad), Зои Кравиц (Toast the Knowing), Эбби Ли (The Dag), Кортни Итон (Cheedo the Fragile), Нэйтан Джонс (Rictus Erectus), Джош Хелман (Slit), Джон Ховард (The People Eater)
Описание:
Преследуемый призраками беспокойного прошлого, Макс уверен, что лучший способ выжить - скитаться в одиночестве. Несмотря на это, он присоединяется к бунтарям, бегущим через всю пустыню на боевой фуре, под предводительством военачальника Фуриосы.
Они пытаются сбежать из Цитадели, страдающей от тирании Несмертного Джо, у которого они забрали кое-что очень ценное. Разъярённый военачальник бросает все свои силы на погоню за мятежниками, ступая на дорогу войны - дорогу ярости.
Рейтинг:


MPAA: R - Лицам до 17 лет обязательно присутствие взрослого
Качество: HDRip
Формат: AVI
Видео кодек: XviD
Аудио кодек: MP3
Видео: XviD, 656x272 (2.40:1), 734 kbps, 23,976 fps, 0,172 bpp
Аудио: русский / MP3 / 2.0 / 48 kHz / 128 kbps /

Код:

General
Complete name                            : H:\Bezumnyi.Maks.4.2015.D.HDRip.Rus.Sub.avi
Format                                   : AVI
Format/Info                              : Audio Video Interleave
File size                                : 751 MiB
Duration                                 : 2h 0mn
Overall bit rate                         : 872 Kbps
Writing application                      : VirtualDubMod 1.5.10.2 (build 2542/release)
Writing library                          : VirtualDubMod build 2542/release

Video
ID                                       : 0
Format                                   : MPEG-4 Visual
Format profile                           : Advanced [email protected]
Format settings, BVOP                    : 1
Format settings, QPel                    : No
Format settings, GMC                     : No warppoints
Format settings, Matrix                  : Default (H.263)
Muxing mode                              : Packed bitstream
Codec ID                                 : XVID
Codec ID/Hint                            : XviD
Duration                                 : 2h 0mn
Bit rate                                 : 735 Kbps
Width                                    : 656 pixels
Height                                   : 272 pixels
Display aspect ratio                     : 2.40:1
Frame rate                               : 23.976 fps
Color space                              : YUV
Chroma subsampling                       : 4:2:0
Bit depth                                : 8 bits
Scan type                                : Progressive
Compression mode                         : Lossy
Bits/(Pixel*Frame)                       : 0.172
Stream size                              : 633 MiB (84%)
Writing library                          : XviD 64

Audio
ID                                       : 1
Format                                   : MPEG Audio
Format version                           : Version 1
Format profile                           : Layer 3
Codec ID                                 : 55
Codec ID/Hint                            : MP3
Duration                                 : 2h 0mn
Bit rate mode                            : Constant
Bit rate                                 : 128 Kbps
Channel(s)                               : 2 channels
Sampling rate                            : 48.0 KHz
Compression mode                         : Lossy
Stream size                              : 110 MiB (15%)
Alignment                                : Split accross interleaves
Interleave, duration                     : 42 ms (1.00 video frame)
Interleave, preload duration             : 500 ms
Writing library                          : L3.99r
Encoding settings                        : -m s -V 4 -q 2 -lowpass 17 -b 128

исходный рип от MediaClub, субтитры вшиты с использованием AVI ReComp
Скриншоты:

freetor.icu
!-Lexx- писал(а):

Залито по заказу.



Скачать Безумный Макс: Дорога ярости через торрент http://i1.imageban.ru/out/2015/12/01/264220e0d9c535b00e7f8a236fd1d087.jpg Скачать, смотреть онлайн Безумный Макс: Дорога ярости бесплантно в хорошем качестве Описание: Преследуемый призраками беспокойного прошлого, Макс уверен, что лучший способ выжить - скитаться в одиночестве. Несмотря на это, ... 9.2 10 11
Info! Золотая раздача, скачанное не засчитывается.
Торрент: Зарегистрирован [2015-12-01 10:03] · скачан: 107 раз
Статус: √ проверено
Размер: 751 MB
Как cкачать? Как скачать Безумный Макс: Дорога ярости через торрент | UTorrent

28-11-2019 20:33  

Отключить всю рекламу на сайте

07-12-2015 08:17 Безумный Макс: Дорога ярости Скачать торрент  

лучшее кино за этот год!freetor.icu



    Дорогой пользователь! Огромная просьба, поблагодарите релизера, оцените раздачу и оставьте свои комментарий, если Вы скачали Безумный Макс: Дорога ярости через торрент бесплатно!
    Комментировать посты могут только пользователи прошедшие не сложную регистрацию
    Показать сообщения:    

    Безумный Макс: Дорога ярости через торрент
    Скачать бесплатно Безумный Макс: Дорога ярости
    Безумный Макс: Дорога ярости скачать торрент
    Безумный Макс: Дорога ярости смотреть онлайн
    Cкачать фильм Безумный Макс: Дорога ярости бесплатно
    Безумный Макс: Дорога ярости скачать торрент в хорошем качестве
    Безумный Макс: Дорога ярости смотреть онлайн бесплатно в хорошем качестве


    Вы не можете начинать темы
    Вы не можете отвечать на сообщения
    Вы не можете редактировать свои сообщения
    Вы не можете удалять свои сообщения
    Вы не можете голосовать в опросах
    Вы не можете прикреплять файлы к сообщениям
    Вы можете скачивать файлы