Присоединяйтесь к нам в Telegram!, здесь всегда актуальный адрес сайта, оперативная поддержка и многое другое!!

>

5.9

iTunes

7.4

iTunes

9.4

1 сезон

1

7.4

2 сезон

7.2

iTunes

7.3

iTunes

13

6.1

iTunes

8.3

Пиратка

30

ULTIMATE

pack

9.9

Лицензия

ВАЖНО

ИГРА 18+

pack

7.3

RePack

MK11

7.7

RePack

jed

7.8

RePack

fifa19

8.5

RePack

RDR2

RePack

NEED FOR SPEED™ PAYBACK

5 сезон

9 сезон

Бесстыжие 9 сезон

Все сериалы

все сериалы на PB.wtf

RePack

FAR CRY 5

Anonymous, доброе утро, мы катастрофически не успеваем собрать деньги на оплату серверов, помогите нам пожалуйста 5,10,15р., для нас важна любая помощь . В качестве благодарности мы отключим Вам всю рекламу на сайте (укажите свой ник в строку Ваше имя)!

×
  
Magnet ссылка

Ватиканские записи / The Vatican Tapes (Марк Невелдайн) [2015, ужасы, триллер, HDRip, Дубляж] iTunes freetor.icu

Ватиканские записи через торрент freetor.icu

Размер: 748 MB | Добавлен: 6 лет назад | Торрент скачан:357 раз
Смотреть онлайн Ватиканские записи | Скачать    Ребята, помогите собрать деньги на оплату серверов!!!

30-11-2015 14:09 Ватиканские записи Скачать торрент  


Ватиканские записи / The Vatican Tapes
««For 2,000 years the Vatican has recorded evidence of evil. May God have mercy on their souls»»

ИНФОРМАЦИЯ:
Год выпуска:2015
Страна: США
Жанр: ужасы, триллер
Продолжительность: 01:30:52
Перевод: Дубляж - [Лицензия / iTunes]
Режиссер: Марк Невелдайн

В Ролях:


Майкл Пенья (Father Lozano), Дюгрей Скотт (Roger Holmes), Кэтлин Робертсон (Dr. Richards), Элисон Ломан (Psych Patient), Джимон Хонсу (Vicar Imani), Оливия Тейлор Дадли (Angela), Джон Патрик Амедори (Pete), Майкл Паре (Det. Harris), Темина Санни (Reporter), Дэниэл Бернхард (Psych Ward Security), Кэс Анвар (Dr. Fahti), Бруно Ганн (Damon)

Описание:
Анжела Холмс жила обычной жизнью, пока внезапно не начала оказывать разрушительное воздействие на окружающих, причиняя людям серьезные, иногда смертельные травмы. Местный священник, отец Лозано, уверен в ее одержимости. Приглашенные для проведения сеанса экзорцизма кардиналы из Ватикана сталкиваются с древней сатанинской силой, большей, чем они могли себе представить.

  • Мировая премьера:23 июля 2015

    ТЕХ.ДАННЫЕ:
    Качество: HDRip
    Формат: AVI
    Видео: XviD, 720x400 (16:9), 967 kbps, 23,976 fps, 0,140 bpp
    Аудио: AC3 / 2.0 / 48 kHz / 128 kbps / 16 bit


    General
    Complete name : D:\Торенты\3e.Vat1can.3aPe7.2015.D.HDRip.745MB.avi
    Format : AVI
    Format/Info : Audio Video Interleave
    File size : 748 MiB
    Duration : 1h 30mn
    Overall bit rate : 1 150 Kbps
    Writing application : VirtualDubMod 1.5.10.3 | www.virtualdub-fr.org || (build 2550/release)
    Writing library : VirtualDubMod build 2550/release

    Video
    ID : 0
    Format : MPEG-4 Visual
    Format profile : Advanced [email protected]
    Format settings, BVOP : 2
    Format settings, QPel : No
    Format settings, GMC : No warppoints
    Format settings, Matrix : Default (MPEG)
    Codec ID : XVID
    Codec ID/Hint : XviD
    Duration : 1h 30mn
    Bit rate : 968 Kbps
    Width : 720 pixels
    Height : 400 pixels
    Display aspect ratio : 16:9
    Frame rate : 23.976 fps
    Color space : YUV
    Chroma subsampling : 4:2:0
    Bit depth : 8 bits
    Scan type : Progressive
    Compression mode : Lossy
    Bits/(Pixel*Frame) : 0.140
    Stream size : 629 MiB (84%)
    Writing library : XviD 1.2.1 (UTC 2008-12-04)

    Audio
    ID : 1
    Format : AC-3
    Format/Info : Audio Coding 3
    Mode extension : CM (complete main)
    Codec ID : 2000
    Duration : 1h 30mn
    Bit rate mode : Constant
    Bit rate : 128 Kbps
    Channel(s) : 2 channels
    Channel positions : Front: L R
    Sampling rate : 48.0 KHz
    Bit depth : 16 bits
    Compression mode : Lossy
    Stream size : 83.2 MiB (11%)
    Alignment : Split accross interleaves
    Скриншоты:

    © Оформление by .::Ворон::.
    freetor.icu



  • Скачать Ватиканские записи через торрент https://pic1.kartinco.top/images/61/ordi9.jpg Скачать, смотреть онлайн Ватиканские записи бесплантно в хорошем качестве Описание: Анжела Холмс жила обычной жизнью, пока внезапно не начала оказывать разрушительное воздействие на окружающих, причиняя людям ... 8.8 10 15
    Торрент: Зарегистрирован [2015-11-30 14:09] · скачан: 357 раз
    Статус: √ проверено
    Размер: 748 MB
    Как cкачать? Как скачать Ватиканские записи через торрент | UTorrent

    28-11-2019 20:33  

    Отключить всю рекламу на сайте

    02-12-2015 16:13 Ватиканские записи Скачать торрент  

    гамненый фильмfreetor.icu



      Дорогой пользователь! Огромная просьба, поблагодарите релизера, оцените раздачу и оставьте свои комментарий, если Вы скачали Ватиканские записи через торрент бесплатно!
      Комментировать посты могут только пользователи прошедшие не сложную регистрацию
      Показать сообщения:    

      Ватиканские записи через торрент
      Скачать бесплатно Ватиканские записи
      Ватиканские записи скачать торрент
      Ватиканские записи смотреть онлайн
      Cкачать фильм Ватиканские записи бесплатно
      Ватиканские записи скачать торрент в хорошем качестве
      Ватиканские записи смотреть онлайн бесплатно в хорошем качестве


      Вы не можете начинать темы
      Вы не можете отвечать на сообщения
      Вы не можете редактировать свои сообщения
      Вы не можете удалять свои сообщения
      Вы не можете голосовать в опросах
      Вы не можете прикреплять файлы к сообщениям
      Вы можете скачивать файлы