>

5.6

iTunes

6.1

MVO

5.7

MVO

1

7.4

1 сезон

6.8

iTunes

7.2

1 сезон

13

6.7

1 сезон

8.3

RePack

30

Deluxe

pack

9.9

Лицензия

ВАЖНО

ИГРА 18+

pack

7.3

RePack

MK11

7.7

RePack

jed

7.8

RePack

fifa19

8.5

RePack

RDR2

RePack

NEED FOR SPEED™ PAYBACK

4 сезон

9 сезон

Бесстыжие 9 сезон

Все сериалы

все сериалы на PB.wtf

RePack

FAR CRY 5

Anonymous, добрый день, мы катастрофически не успеваем собрать деньги на оплату серверов, помогите нам пожалуйста 5,10,15р., для нас важна любая помощь . В качестве благодарности мы отключим Вам всю рекламу на сайте (укажите свой ник в строку Ваше имя)!

×
  
Magnet ссылка

Тигр / Puli ( Чимбу Девен)[2015, фэнтези, DVDRip, Любительский двухголосый [den904, DeadSno] freetor.icu

Тигр через торрент freetor.icu

Размер: 1.83 GB | Добавлен: 5 лет 9 мес. назад | Торрент скачан:48 раз
Смотреть онлайн Тигр | Скачать    Ребята, помогите собрать деньги на оплату серверов!!!

30-11-2015 14:01 Тигр Скачать торрент  


Тигр / Puli


ИНФОРМАЦИЯ:
Год выпуска:2015
Страна: Индия
Жанр: фэнтези
Продолжительность: 02:34:08
Перевод: Любительский двухголосый [den904, DeadSno]
Режиссер: Чимбу Девен

В Ролях:


Виджай, Судип, Шридеви, Прабху, Шрути Хасан, Хансика Мотвани

Описание:
Клан демонов ветал, во главе с королевой Яваной, мигрировав из островов Агхори, вторгается на земли мирных жителей деревни и заседает там на долгие годы, подчинив под свою Влacть простой люд. Староста деревни Вембунатан пытается освободить своих жителей от угнетения злобных монстров, которым чужды жалость и сострадание, но всякий раз его попытки терпят крах. Единственным, кто способен подарить своему народу свободу, является храбрый воин Марудхира, который не знал бы о своём предназначении, если бы веталы не похитили его молодую жену Паваламалли. Марудхира тут же бросается на поиски своей жены, прихватив себе в помощники говорящую птицу Суру, и двух своих друзей. Но прежде чем попасть в Королевство веталов, бравому воину предстоит встретиться с черепахой - мудрецом Мачакудан, который во спасение девушки задаёт Марудхире и его помощникам загадки, разгадав которые они смогут вызволить из лап смерти похищенную, и навсегда освободить жителей деревни от гнёта веталов. И теперь, им предстоит решить весьма нелегкие задачи, пройти немыслимые препятствия, победить могущественную армию демонов, и одержать победу над самой Королевой!

  • Мировая премьера:1 октября 2015

    ТЕХ.ДАННЫЕ:
    Качество: DVDRip
    Формат: AVI
    Видео: XviD, 720x304 (2.35:1), 1428 kbps, 24 fps, 0,272 bpp
    Аудио: AC3 / 2.0 / 48 kHz / 192 kbps / 16 bit


    General
    Complete name : D:\Торенты\Tigr.2015.DVDRip.XviD.Kolobok.HoneyHaseena.avi
    Format : AVI
    Format/Info : Audio Video Interleave
    File size : 1.83 GiB
    Duration : 2h 34mn
    Overall bit rate : 1 696 Kbps
    Writing application : VirtualDubMod 1.5.10.2 (build 2540/release)
    Writing library : VirtualDubMod build 2540/release

    Video
    ID : 0
    Format : MPEG-4 Visual
    Format profile : Advanced Simple@L5
    Format settings, BVOP : 1
    Format settings, QPel : No
    Format settings, GMC : No warppoints
    Format settings, Matrix : Default (H.263)
    Muxing mode : Packed bitstream
    Codec ID : XVID
    Codec ID/Hint : XviD
    Duration : 2h 34mn
    Bit rate : 1 428 Kbps
    Width : 720 pixels
    Height : 304 pixels
    Display aspect ratio : 2.35:1
    Frame rate : 24.000 fps
    Color space : YUV
    Chroma subsampling : 4:2:0
    Bit depth : 8 bits
    Scan type : Progressive
    Compression mode : Lossy
    Bits/(Pixel*Frame) : 0.272
    Stream size : 1.54 GiB (84%)
    Writing library : XviD 64

    Audio
    ID : 1
    Format : AC-3
    Format/Info : Audio Coding 3
    Mode extension : CM (complete main)
    Codec ID : 2000
    Duration : 2h 34mn
    Bit rate mode : Constant
    Bit rate : 192 Kbps
    Channel(s) : 2 channels
    Channel positions : Front: L R
    Sampling rate : 48.0 KHz
    Bit depth : 16 bits
    Compression mode : Lossy
    Stream size : 212 MiB (11%)
    Alignment : Split accross interleaves
    Скриншоты:

    © Оформление by .::Ворон::.
    freetor.icu



  • Скачать Тигр через торрент https://pic1.kartinco.top/images/61/ordi9.jpg Скачать, смотреть онлайн Тигр бесплантно в хорошем качестве Описание: Клан демонов ветал, во главе с королевой Яваной, мигрировав из островов Агхори, вторгается на земли мирных жителей деревни и ... 9.7 10 3
    Торрент: Зарегистрирован [2015-11-30 14:01] · скачан: 48 раз
    Статус: √ проверено
    Размер: 1.83 GB
    Как cкачать? Как скачать Тигр через торрент | UTorrent

    28-11-2019 20:33  

    Отключить всю рекламу на сайте

    30-11-2015 14:28 Тигр Скачать торрент  

    индийцы молодцы-берутся в своем болливуде за все жанры-что-то получается совсем неплохо-последний раз с супругой посмотрели ихний вариант-муха-очень прикольно получилось у нихfreetor.icu



      Дорогой пользователь! Огромная просьба, поблагодарите релизера, оцените раздачу и оставьте свои комментарий, если Вы скачали Тигр через торрент бесплатно!
      Комментировать посты могут только пользователи прошедшие не сложную регистрацию
      Показать сообщения:    

      Тигр через торрент
      Скачать бесплатно Тигр
      Тигр скачать торрент
      Тигр смотреть онлайн
      Cкачать фильм Тигр бесплатно
      Тигр скачать торрент в хорошем качестве
      Тигр смотреть онлайн бесплатно в хорошем качестве


      Вы не можете начинать темы
      Вы не можете отвечать на сообщения
      Вы не можете редактировать свои сообщения
      Вы не можете удалять свои сообщения
      Вы не можете голосовать в опросах
      Вы не можете прикреплять файлы к сообщениям
      Вы можете скачивать файлы