Присоединяйтесь к нам в Telegram!, здесь всегда актуальный адрес сайта, оперативная поддержка и многое другое!!

>

5.9

iTunes

7.4

iTunes

9.4

1 сезон

1

7.4

2 сезон

7.2

iTunes

7.3

1 сезон

13

6.1

iTunes

8.3

GOG

30

ULTIMATE

pack

9.9

Лицензия

ВАЖНО

ИГРА 18+

pack

7.3

RePack

MK11

7.7

RePack

jed

7.8

RePack

fifa19

8.5

RePack

RDR2

RePack

NEED FOR SPEED™ PAYBACK

5 сезон

9 сезон

Бесстыжие 9 сезон

Все сериалы

все сериалы на PB.wtf

RePack

FAR CRY 5

Anonymous, доброй ночи, мы катастрофически не успеваем собрать деньги на оплату серверов, помогите нам пожалуйста 5,10,15р., для нас важна любая помощь . В качестве благодарности мы отключим Вам всю рекламу на сайте (укажите свой ник в строку Ваше имя)!

×
  
Magnet ссылка

Моя мама / Mia madre (Нанни Моретти) [2015, драма, HDRip, Профессиональный многоголосый [официальный звук] freetor.icu

Моя мама через торрент freetor.icu

Размер: 1.45 GB | Добавлен: 6 лет назад | Торрент скачан:193 раза
Смотреть онлайн Моя мама | Скачать    Ребята, помогите собрать деньги на оплату серверов!!!

24-11-2015 18:07 Моя мама Скачать торрент  


Моя мама / Mia madre


ИНФОРМАЦИЯ:
Год выпуска:2015
Страна: Италия, Франция
Жанр: драма
Продолжительность: 01:47:10
Перевод: Профессиональный многоголосый [официальный звук]
Режиссер: Нанни Моретти

В Ролях:


Маргерита Буй (Margherita), Джон Туртурро (Barry Huggins), Джулия Лаццарини (Ada), Нанни Моретти (Giovanni), Беатрис Манчини (Livia), Стефано Аббати (Federico), Энрико Ианнелло (Vittorio), Анна Беллато (Attrice), Тони Лаудадио (Produttore), Лоренцо Джоиелли (Interprete), Пьетро Рагуса (Bruno), Татьяна Лепоре (Segretaria di edizione)

Описание:
Маргарита снимает новый фильм, возлагая большие надежды на приглашенного голливудского актера, однако на поверку тот оказывается чудаковатым щеглом, который не может запомнить ни строчки сценария, зато веселит всю съемочную группу. Кажется, все летит в тар-тарары: Маргарита уходит от партнера, с дочерью не ладится, и даже образцово-показательный брак испытывает кризис. В этой суматохе из жизни тихо уходит мама Маргариты, мудрая остроумная преподавательница латыни. С удивлением Маргарита обнаруживает, что жизнь ее мамы была полна вещей, о которых дочь и не подозревала...

  • Мировая премьера:16 апреля 2015

    ТЕХ.ДАННЫЕ:
    Качество: HDRip
    Формат: AVI
    Видео: XviD, 720x384 (1.875), 1741 kbps, 23,976 fps, 0,263 bpp
    Аудио: AC3 / 2.0 / 48 kHz / 192 kbps / 16 bit


    General
    Complete name : D:\Торенты\Moja.mama.2015.P.HDRip.Freerutor.1.46GB.avi
    Format : AVI
    Format/Info : Audio Video Interleave
    File size : 1.45 GiB
    Duration : 1h 47mn
    Overall bit rate : 1 943 Kbps
    Writing application : VirtualDubMod 1.5.10.2 (build 2540/release)
    Writing library : VirtualDubMod build 2540/release

    Video
    ID : 0
    Format : MPEG-4 Visual
    Format profile : Advanced [email protected]
    Format settings, BVOP : 2
    Format settings, QPel : No
    Format settings, GMC : No warppoints
    Format settings, Matrix : Default (MPEG)
    Codec ID : XVID
    Codec ID/Hint : XviD
    Duration : 1h 47mn
    Bit rate : 1 742 Kbps
    Width : 720 pixels
    Height : 384 pixels
    Display aspect ratio : 1.875
    Frame rate : 23.976 fps
    Color space : YUV
    Chroma subsampling : 4:2:0
    Bit depth : 8 bits
    Scan type : Progressive
    Compression mode : Lossy
    Bits/(Pixel*Frame) : 0.263
    Stream size : 1.30 GiB (90%)
    Writing library : XviD 1.2.1 (UTC 2008-12-04)

    Audio
    ID : 1
    Format : AC-3
    Format/Info : Audio Coding 3
    Mode extension : CM (complete main)
    Codec ID : 2000
    Duration : 1h 47mn
    Bit rate mode : Constant
    Bit rate : 192 Kbps
    Channel(s) : 2 channels
    Channel positions : Front: L R
    Sampling rate : 48.0 KHz
    Bit depth : 16 bits
    Compression mode : Lossy
    Stream size : 147 MiB (10%)
    Alignment : Split accross interleaves
    Interleave, duration : 42 ms (1.00 video frame)
    Interleave, preload duration : 500 ms
    Скриншоты:

    © Оформление by .::Ворон::.
    freetor.icu



  • Скачать Моя мама через торрент https://pic1.kartinco.top/images/61/ordi9.jpg Скачать, смотреть онлайн Моя мама бесплантно в хорошем качестве Описание: Маргарита снимает новый фильм, возлагая большие надежды на приглашенного голливудского актера, однако на поверку тот оказывается ... 9.2 10 5
    Торрент: Зарегистрирован [2015-11-24 18:07] · скачан: 193 раз
    Статус: √ проверено
    Размер: 1.45 GB
    Как cкачать? Как скачать Моя мама через торрент | UTorrent

    28-11-2019 20:33  

    Отключить всю рекламу на сайте

      Дорогой пользователь! Огромная просьба, поблагодарите релизера, оцените раздачу и оставьте свои комментарий, если Вы скачали Моя мама через торрент бесплатно!
      Комментировать посты могут только пользователи прошедшие не сложную регистрацию
      Показать сообщения:    

      Моя мама через торрент
      Скачать бесплатно Моя мама
      Моя мама скачать торрент
      Моя мама смотреть онлайн
      Cкачать фильм Моя мама бесплатно
      Моя мама скачать торрент в хорошем качестве
      Моя мама смотреть онлайн бесплатно в хорошем качестве


      Вы не можете начинать темы
      Вы не можете отвечать на сообщения
      Вы не можете редактировать свои сообщения
      Вы не можете удалять свои сообщения
      Вы не можете голосовать в опросах
      Вы не можете прикреплять файлы к сообщениям
      Вы можете скачивать файлы