Присоединяйтесь к нам в Telegram!, здесь всегда актуальный адрес сайта, оперативная поддержка и многое другое!!

>

5.9

iTunes

7.4

iTunes

9.4

1 сезон

1

7.4

2 сезон

7.2

iTunes

7.3

1 сезон

13

6.1

iTunes

8.3

GOG

30

ULTIMATE

pack

9.9

Лицензия

ВАЖНО

ИГРА 18+

pack

7.3

RePack

MK11

7.7

RePack

jed

7.8

RePack

fifa19

8.5

RePack

RDR2

RePack

NEED FOR SPEED™ PAYBACK

5 сезон

9 сезон

Бесстыжие 9 сезон

Все сериалы

все сериалы на PB.wtf

RePack

FAR CRY 5

Anonymous, доброй ночи, мы катастрофически не успеваем собрать деньги на оплату серверов, помогите нам пожалуйста 5,10,15р., для нас важна любая помощь . В качестве благодарности мы отключим Вам всю рекламу на сайте (укажите свой ник в строку Ваше имя)!

×
  
Magnet ссылка

Хитмэн: Агент 47 / Hitman: Agent 47 (Александр Бах) [2015 г., боевик, фантастика, триллер, HDRip by Dean24] (Дубляж Лицензия) freetor.icu

Хитмэн: Агент 47 через торрент freetor.icu

Размер: 1.47 GB | Добавлен: 6 лет назад | Торрент скачан:468 раз
Смотреть онлайн Хитмэн: Агент 47 | Скачать    Ребята, помогите собрать деньги на оплату серверов!!!

21-11-2015 08:52 Хитмэн: Агент 47 Скачать торрент  

Хитмэн: Агент 47 / Hitman: Agent 47Год выпуска: 2015
Страна: США, Германия, Индонезия
Жанр: боевик, фантастика, триллер
Продолжительность: 01:36:16
Перевод: Дубляж | Лицензия
Субтитры: Нет

Режиссер: Александр Бах
Продюссер: Адриан Аскариа, Чарльз Гордон, Алекс Янг
Сценарий: Скип Вудс, Майкл Финч

Бюджет: $35 000 000
Премьера в мире: 13 августа 2015



В ролях: Руперт Френд, Ханна Уэр, Закари Куинто, Киран Хайндс, Томас Кречман, Анджела Бейби, Дэн Баккедаль, Шарлин Бек, Михаэль Борнхюттер, Мелисса Бротон, Олег Фёдоров, Мария Цветкова-Овсянникова, Дмитрий Стрелков, Владимир Артемов, Станислав Концевич

Описание: История об элитном убийце, созданном при помощи генной инженерии, который объединяется с женщиной, чтобы помочь ей найти отца и раскрыть тайну своего происхождения.

Качество: HDRip | BDRip 720p
Формат: AVI
Видео кодек: XviD
Аудио кодек: AC3
Видео: 720x304 (2.37:1), 23.976 fps, XviD build 50 ~1789 kbps avg, 0.34 bit/pixel
Аудио: 48 kHz, AC3 Dolby Digital, 3/2 (L,C,R,l,r) + LFE ch, ~384 kbps



Автор рипа: Dean24
|
Общее
Полное имя : D:\Мои документы\Фильмы\Сайт\Hitman.Agent.47.HDRip.avi
Формат : AVI
Формат/Информация : Audio Video Interleave
Размер файла : 1,47 Гбайт
Продолжительность : 1 ч. 36 м.
Общий поток : 2183 Кбит/сек
Программа кодирования : VirtualDubMod 1.5.10.3 | www.virtualdub-fr.org || (build 2550/release)
Библиотека кодирования : VirtualDubMod build 2550/release

Видео
Идентификатор : 0
Формат : MPEG-4 Visual
Профиль формата : Advanced [email protected]
Параметр BVOP формата : 3
Параметр QPel формата : Нет
Параметр GMC формата : Без точки перехода
Параметр матрицы формата : Default (H.263)
Идентификатор кодека : XVID
Идентификатор кодека/Подсказка : XviD
Продолжительность : 1 ч. 36 м.
Битрейт : 1790 Кбит/сек
Ширина : 720 пикселей
Высота : 304 пикселя
Соотношение сторон : 2,35:1
Частота кадров : 23,976 кадра/сек
Цветовое пространство : YUV
Субдискретизация насыщенности : 4:2:0
Битовая глубина : 8 бит
Тип развёртки : Прогрессивная
Метод сжатия : С потерями
Бит/(Пиксели*Кадры) : 0.341
Размер потока : 1,20 Гбайт (82%)
Библиотека кодирования : XviD 1.2.1 (UTC 2008-12-04)

Аудио
Идентификатор : 1
Формат : AC-3
Формат/Информация : Audio Coding 3
Расширение режима : CM (complete main)
Параметр Endianness формата : Big
Идентификатор кодека : 2000
Продолжительность : 1 ч. 36 м.
Вид битрейта : Постоянный
Битрейт : 384 Кбит/сек
Каналы : 6 каналов
Расположение каналов : Front: L C R, Side: L R, LFE
Частота : 48,0 КГц
Битовая глубина : 16 бит
Метод сжатия : С потерями
Размер потока : 264 Мбайт (18%)
Выравнивание : Разделение по промежуткам
Продолжительность промежутка : 42 мс. (1,00 видеокадр)
Время предзагрузки промежутка : 500 мс.

freetor.icu



Скачать Хитмэн: Агент 47 через торрент http://i67.fastpic.ru/big/2015/1121/c1/b05bae3014f361bdc44ce644f7b163c1.png Скачать, смотреть онлайн Хитмэн: Агент 47 бесплантно в хорошем качестве Описание: История об элитном убийце, созданном при помощи генной инженерии, который объединяется с женщиной, чтобы помочь ей найти отца и ... 9.6 10 14
Торрент: Зарегистрирован [2015-11-21 08:52] · скачан: 468 раз
Статус: √ проверено
Размер: 1.47 GB
Как cкачать? Как скачать Хитмэн: Агент 47 через торрент | UTorrent

% Раздел Тема Автор DL S | L
Ultra HD (UHD: 2K, 4K, 8K) — видео сверхвысокой чёткости [ 39.04 GB ] Хитмэн: Агент 47 / Hitman: Agent 47 [2015 UHD Blu-ray 2160p] DUB sheker187 Скачать
1 | 0
Ultra HD (UHD: 2K, 4K, 8K) — видео сверхвысокой чёткости [ 34.65 GB ] Хитмэн: Агент 47 / Hitman: Agent 47 [2015 UHD BDRemux 2160p] DUB [] bober100 Скачать
1 | 0
Фильмы 2015 [DVDrip, WEB-DLRip, HDrip] [ 2.17 GB ] Хитмэн: Агент 47 / Hitman: Agent 47 [2015 Германия Индонезия BDRip-AVC от sokol_ok] DUB sokol_ok Скачать
2 | 0
Фильмы [HD 720p, 1080p] (Хороший звук DUB, MVO) [ 4.34 GB ] Хитмэн: Агент 47 / Hitman: Agent 47 [2015 BDRip 720p] DUB potroks Скачать
1 | 0
Фильмы (HD 720p, 1080p) (48-60 fps) [ 9.7 GB ] Хитмэн: Агент 47 / Hitman: Agent 47 [2015 Германия Сингапур BDRip 720p / 60 fps ] от R.G. HD-Films Ressident Скачать
2 | 0
Фильмы [HD 720p, 1080p] (Хороший звук DUB, MVO) [ 9.56 GB ] Хитмэн: Агент 47 / Hitman: Agent 47 [2015 BDRip 1080p - [ ] Ворон Скачать
1 | 0
Фильмы 2015 [DVDrip, WEB-DLRip, HDrip] [ 1.46 GB ] Хитмэн: Агент 47 / Hitman: Agent 47 [2015 Германия Индонезия BDRip-AVC от sokol_ok] DUB sokol_ok Скачать
1 | 0

28-11-2019 20:33  

Отключить всю рекламу на сайте

28-11-2015 01:20 Хитмэн: Агент 47 Скачать торрент  

Рассмотрим фильм с двух сторон:
Кино по культовой игре.
Первая и непоправимая ошибка фильма — это, опять же, актёр, играющий протагониста. Руперт Френд — никаким боком не подходит для 47-го, а его лысина, которую и лысиной назвать нельзя, и долбанный штрих-код, который, видимо, представляет из себя простую наклейку из какой-нибудь Hubba Bubba — выбивают из колеи. Стоит ли распинаться о том, что картина полностью лишена канонизма и плюет в лицо фанатам игровой серии? Думаю нет, ибо и так всё понятно уже по первым кадрам данной нетленки.
Что этот фильм что первый вышедший в 2007 году полностью провалился.
Кино не по игре
Если кто не знаком с серией игр о Хитмане или если вообще не сравнивать , то фильм вышел на твердую 6/10
Экшен выглядит относительно неплохо, но, к глубочайшему сожалению, данный аспект не спас всю сложившуюся о сабже картинку. Хитмэн получился весьма посредственным боевиком. Удачной экранизацией игры этот фильм не назвать никак. Основные идеи Хитмэна из мира игр тут не переданы на экран. Да и до остросюжетного боевика высокого качества здесь тоже далеко. Вышел среднячек такой....freetor.icu



    Дорогой пользователь! Огромная просьба, поблагодарите релизера, оцените раздачу и оставьте свои комментарий, если Вы скачали Хитмэн: Агент 47 через торрент бесплатно!
    Комментировать посты могут только пользователи прошедшие не сложную регистрацию
    Показать сообщения:    

    Хитмэн: Агент 47 через торрент
    Скачать бесплатно Хитмэн: Агент 47
    Хитмэн: Агент 47 скачать торрент
    Хитмэн: Агент 47 смотреть онлайн
    Cкачать фильм Хитмэн: Агент 47 бесплатно
    Хитмэн: Агент 47 скачать торрент в хорошем качестве
    Хитмэн: Агент 47 смотреть онлайн бесплатно в хорошем качестве


    Вы не можете начинать темы
    Вы не можете отвечать на сообщения
    Вы не можете редактировать свои сообщения
    Вы не можете удалять свои сообщения
    Вы не можете голосовать в опросах
    Вы не можете прикреплять файлы к сообщениям
    Вы можете скачивать файлы