Присоединяйтесь к нам в Telegram!, здесь всегда актуальный адрес сайта, оперативная поддержка и многое другое!!

>

5.9

iTunes

7.4

iTunes

9.4

1 сезон

1

7.4

2 сезон

7.2

iTunes

7.3

1 сезон

13

6.1

iTunes

8.3

Пиратка

30

ULTIMATE

pack

9.9

Лицензия

ВАЖНО

ИГРА 18+

pack

7.3

RePack

MK11

7.7

RePack

jed

7.8

RePack

fifa19

8.5

RePack

RDR2

RePack

NEED FOR SPEED™ PAYBACK

5 сезон

9 сезон

Бесстыжие 9 сезон

Все сериалы

все сериалы на PB.wtf

RePack

FAR CRY 5

Anonymous, доброй ночи, мы катастрофически не успеваем собрать деньги на оплату серверов, помогите нам пожалуйста 5,10,15р., для нас важна любая помощь . В качестве благодарности мы отключим Вам всю рекламу на сайте (укажите свой ник в строку Ваше имя)!

×
  
Magnet ссылка

Ультраамериканцы / American Ultra (Нима Нуризаде / Nima Nourizadeh) [2015, боевик, комедия, BDRip-AVC от potroks] DUB Лицензия freetor.icu

Ультраамериканцы через торрент freetor.icu

Раздают: 1 [ 0 KB/s ]
Размер: 1.46 GB | Добавлен: 5 лет 9 мес. назад | Торрент скачан:340 раз
Смотреть онлайн Ультраамериканцы | Скачать    Ребята, помогите собрать деньги на оплату серверов!!!

12-11-2015 14:28 Ультраамериканцы Скачать торрент  

Ультраамериканцы / American Ultra
«Нет ничего опаснее обкуренного киллера с амнезией»
Год выпуска: 2015
Страна: США, Швейцария / Likely Story, Palm-Star Entertainment, Circle of Confusion...
Жанр: боевик, комедия
Продолжительность: 01:35:41
Перевод: Дубляж [BD RUS]
Субтитры: русские (А.Матвеев)
Навигация по главам: есть
Режиссер: Нима Нуризаде / Nima Nourizadeh
В ролях:

Джесси Айзенберг (Mike Howell), Кристен Стюарт (Phoebe Larson), Тофер Грейс (Adrian Yates), Конни Бриттон (Victoria Lasseter), Уолтон Гоггинс (Laugher), Джон Легуизамо (Rose), Билл Пуллман (Krueger), Тони Хейл (Petey Douglas), Стюарт Грир (Sheriff Watts), Майкл Пападжон (Otis), Моник Гэндертон (Crane), Нэш Эдгертон (Beedle)
Описание: А вдруг ты тоже спецагент, обладающий уникальной боевой подготовкой и сверхинтеллектом? Но просто ты забыл об этом... Как Майк Хоуэлл, лоботряс из супермаркета, который безмятежно читает комиксы и курит дурь пока славное прошлое не настигает его. И обдолбанный агент N1 становится мишенью N1.

Качество: BDRip-AVC
Формат: MKV
Видео кодек: AVC
Аудио кодек: AC3
Видео: 960x520 (1.852), 1802 kbps, 23,976 fps, 0,151 bit/pixel
Аудио: AC3 / 5.1 / 48 kHz / 384 kbps / 16 bit

Релиз группы:
Автор рипа: potroks

Код:

Общее
Уникальный идентификатор : 247933431752264815311520589632785986366 (0xBA863DF6819CB10CB78787EEA9D1B33E)
Полное имя : Ul'traamerikantcy.2015.RUS.BDRip.x264.-HELLYWOOD.mkv
Формат : Matroska
Версия формата : Version 4 / Version 2
Размер файла : 1,46 Гбайт
Продолжительность : 1 ч. 35 м.
Общий поток : 2187 Кбит/сек
Название фильма : American Ultra (2015) - HELLYWOOD
Дата кодирования : UTC 2016-02-28 06:40:16
Программа кодирования : mkvmerge v5.9.0 ('On The Loose') built on Dec 15 2012 16:39:58
Библиотека кодирования : libebml v1.3.0 + libmatroska v1.4.0

Видео
Идентификатор : 1
Формат : AVC
Формат/Информация : Advanced Video Codec
Профиль формата : [email protected]
Параметр CABAC формата : Да
Параметр ReFrames формата : 11 кадров
Идентификатор кодека : V_MPEG4/ISO/AVC
Продолжительность : 1 ч. 35 м.
Битрейт : 1802 Кбит/сек
Ширина : 960 пикселей
Высота : 520 пикселей
Соотношение сторон : 1,85:1
Соотношение сторон в оригинале : 1,85:1
Режим частоты кадров : Постоянный
Частота кадров : 23,976 кадра/сек
Цветовое пространство : YUV
Субдискретизация насыщенности : 4:2:0
Битовая глубина : 8 бит
Тип развёртки : Прогрессивная
Бит/(Пиксели*Кадры) : 0.151
Размер потока : 1,18 Гбайт (80%)
Заголовок : potroks
Библиотека кодирования : x264 core 128 r2216M 198a7ea
Настройки программы : cabac=1 / ref=12 / deblock=1:-2:-2 / analyse=0x3:0x133 / me=umh / subme=11 / psy=1 / psy_rd=1.00:0.50 / mixed_ref=1 / me_range=56 / chroma_me=1 / trellis=2 / 8x8dct=1 / cqm=0 / deadzone=21,11 / fast_pskip=0 / chroma_qp_offset=-4 / threads=10 / lookahead_threads=1 / sliced_threads=0 / nr=0 / decimate=1 / interlaced=0 / bluray_compat=0 / constrained_intra=0 / bframes=13 / b_pyramid=1 / b_adapt=2 / b_bias=0 / direct=3 / weightb=1 / open_gop=0 / weightp=2 / keyint=250 / keyint_min=23 / scenecut=40 / intra_refresh=0 / rc_lookahead=40 / rc=2pass / mbtree=0 / bitrate=1802 / ratetol=1.0 / qcomp=0.70 / qpmin=0 / qpmax=69 / qpstep=4 / cplxblur=20.0 / qblur=0.5 / vbv_maxrate=62500 / vbv_bufsize=62500 / nal_hrd=none / ip_ratio=1.40 / pb_ratio=1.30 / aq=1:0.80
Язык : English
Default : Да
Forced : Нет

Аудио
Идентификатор : 2
Формат : AC-3
Формат/Информация : Audio Coding 3
Расширение режима : CM (complete main)
Параметр Endianness формата : Big
Идентификатор кодека : A_AC3
Продолжительность : 1 ч. 35 м.
Вид битрейта : Постоянный
Битрейт : 384 Кбит/сек
Каналы : 6 каналов
Расположение каналов : Front: L C R, Side: L R, LFE
Частота : 48,0 КГц
Метод сжатия : С потерями
Размер потока : 263 Мбайт (18%)
Заголовок : Dub | DD 5.1 @ 384 kbps - Blu-Ray RUS
Язык : Russian
Default : Да
Forced : Нет

Текст
Идентификатор : 3
Формат : UTF-8
Идентификатор кодека : S_TEXT/UTF8
Идентификатор кодека/Информация : UTF-8 Plain Text
Заголовок : A.Matveev (+18)
Язык : Russian
Default : Нет
Forced : Нет

Меню
00:00:00.000 : en:(01)00:00:00:000
00:03:47.727 : en:(02)00:03:47:727
00:09:28.985 : en:(03)00:09:28:985
00:16:40.581 : en:(04)00:16:40:581
00:22:15.916 : en:(05)00:22:15:916
00:26:45.979 : en:(06)00:26:45:979
00:33:28.631 : en:(07)00:33:28:631
00:37:54.230 : en:(08)00:37:54:230
00:42:31.047 : en:(09)00:42:31:047
00:48:55.849 : en:(10)00:48:55:849
00:55:13.393 : en:(11)00:55:13:393
01:00:11.273 : en:(12)01:00:11:273
01:06:12.300 : en:(13)01:06:12:300
01:10:14.667 : en:(14)01:10:14:667
01:18:38.921 : en:(15)01:18:38:921
01:25:14.692 : en:(16)01:25:14:692

freetor.icu



Скачать Ультраамериканцы через торрент http://i74.fastpic.ru/big/2016/0213/c7/6538c0c2bed3fa805775572388ef15c7.png Скачать, смотреть онлайн Ультраамериканцы бесплантно в хорошем качестве Описание: А вдруг ты тоже спецагент, обладающий уникальной боевой подготовкой и сверхинтеллектом? Но просто ты забыл об этом... Как Майк ... 7.9 10 19
Info! Золотая раздача, скачанное не засчитывается.
Торрент: Зарегистрирован [2016-02-28 06:49] · скачан: 340 раз
Статус: √ проверено
Размер: 1.46 GB
Как cкачать? Как скачать Ультраамериканцы через торрент | UTorrent

% Раздел Тема Автор DL S | L
Фильмы 2015 [DVDrip, WEB-DLRip, HDrip] [ 2.18 GB ] Ультраамериканцы / American Ultra [2015 Швейцария BDRip-AVC от sokol_ok] DUB sokol_ok Скачать
2 | 0
Фильмы 2015 [DVDrip, WEB-DLRip, HDrip] [ 1.46 GB ] Ультраамериканцы / American Ultra [2015 Швейцария BDRip-AVC от sokol_ok] DUB sokol_ok Скачать
2 | 0
Фильмы 2015 [DVDrip, WEB-DLRip, HDrip] [ 2.18 GB ] Ультраамериканцы / American Ultra [2015 BDRip-AVC] DUB potroks Скачать
1 | 0
Фильмы 2015 [DVDrip, WEB-DLRip, HDrip] [ 1.37 GB ] Ультраамериканцы / American Ultra [2015 HDRip] killermax2013 Скачать
1 | 0

28-11-2019 20:33  

Отключить всю рекламу на сайте

28-02-2016 11:25 Ультраамериканцы Скачать торрент  

Спасибо
буду смотреть:)freetor.icu



28-02-2016 21:53 Ультраамериканцы Скачать торрент  

Фильм на один раз.freetor.icu



03-04-2016 14:06 Ультраамериканцы Скачать торрент  

что за тупые высказывания.. *фильм на один раз* ... а насколько? на 10 чтоль или ты хранишь фильмы которые не на один раз в своём терабайте и пересматриваешь каждый деньfreetor.icu



    Дорогой пользователь! Огромная просьба, поблагодарите релизера, оцените раздачу и оставьте свои комментарий, если Вы скачали Ультраамериканцы через торрент бесплатно!
    Комментировать посты могут только пользователи прошедшие не сложную регистрацию
    Показать сообщения:    

    Ультраамериканцы через торрент
    Скачать бесплатно Ультраамериканцы
    Ультраамериканцы скачать торрент
    Ультраамериканцы смотреть онлайн
    Cкачать фильм Ультраамериканцы бесплатно
    Ультраамериканцы скачать торрент в хорошем качестве
    Ультраамериканцы смотреть онлайн бесплатно в хорошем качестве


    Вы не можете начинать темы
    Вы не можете отвечать на сообщения
    Вы не можете редактировать свои сообщения
    Вы не можете удалять свои сообщения
    Вы не можете голосовать в опросах
    Вы не можете прикреплять файлы к сообщениям
    Вы можете скачивать файлы