Присоединяйтесь к нам в Telegram!, здесь всегда актуальный адрес сайта, оперативная поддержка и многое другое!!

>

5.9

iTunes

7.4

iTunes

9.4

1 сезон

1

7.4

2 сезон

7.2

iTunes

7.3

1 сезон

13

6.1

iTunes

8.3

GOG

30

ULTIMATE

pack

9.9

Лицензия

ВАЖНО

ИГРА 18+

pack

7.3

RePack

MK11

7.7

RePack

jed

7.8

RePack

fifa19

8.5

RePack

RDR2

RePack

NEED FOR SPEED™ PAYBACK

5 сезон

9 сезон

Бесстыжие 9 сезон

Все сериалы

все сериалы на PB.wtf

RePack

FAR CRY 5

Anonymous, доброй ночи, мы катастрофически не успеваем собрать деньги на оплату серверов, помогите нам пожалуйста 5,10,15р., для нас важна любая помощь . В качестве благодарности мы отключим Вам всю рекламу на сайте (укажите свой ник в строку Ваше имя)!

×
  
Magnet ссылка

Кривая линия / Curve (Иэн Софтли) [2015, ужасы, триллер, WEB-DLRip] Дубляж [iTunes] freetor.icu

Кривая линия через торрент freetor.icu

Размер: 1.36 GB | Добавлен: 6 лет назад | Торрент скачан:344 раза
Смотреть онлайн Кривая линия | Скачать    Ребята, помогите собрать деньги на оплату серверов!!!

08-11-2015 14:33 Кривая линия Скачать торрент  

Кривая линия / Curve

  • Год выхода: 2015
  • Жанр: ужасы, триллер
  • Страна: США
  • Продолжительность: 01:25:29
  • Перевод: Дубляж [iTunes]
  • Режиссер: Иэн Софтли
  • В ролях:

    Джулианна Хаф (Mallory Rutledge), Тедди Сирс (Christian Laughton), Курт Брайант (Katie's Father), Мэдалин Хорчер (Katie Goldman), Дрю Рауш (Deputy)


  • По вине автостопщика, спровоцировавшего аварию, молодая женщина попадает в ловушку своего собственного автомобиля.

  • Качество: WEB-DLRip
  • Формат: AVI
  • Видео кодек: XviD
  • Аудио кодек: AC3
  • Видео: XviD, 720x304 (2.35:1), 1884 kbps, 23,976 fps, 0,359 bpp
  • Аудио: AC3 / 2.0 / 48 kHz / 384 kbps / 16 bit

    Код:

    General
    Complete name                            : H:\Curve.2015.D.WEB-DLRip.1400Mb.avi
    Format                                   : AVI
    Format/Info                              : Audio Video Interleave
    File size                                : 1.36 GiB
    Duration                                 : 1h 25mn
    Overall bit rate                         : 2 278 Kbps
    Writing application                      : VirtualDubMod 1.5.10.2 (build 2540/release)
    Writing library                          : VirtualDubMod build 2540/release

    Video
    ID                                       : 0
    Format                                   : MPEG-4 Visual
    Format profile                           : Advanced [email protected]
    Format settings, BVOP                    : 2
    Format settings, QPel                    : No
    Format settings, GMC                     : No warppoints
    Format settings, Matrix                  : Default (MPEG)
    Codec ID                                 : XVID
    Codec ID/Hint                            : XviD
    Duration                                 : 1h 25mn
    Bit rate                                 : 1 885 Kbps
    Width                                    : 720 pixels
    Height                                   : 304 pixels
    Display aspect ratio                     : 2.35:1
    Frame rate                               : 23.976 fps
    Color space                              : YUV
    Chroma subsampling                       : 4:2:0
    Bit depth                                : 8 bits
    Scan type                                : Progressive
    Compression mode                         : Lossy
    Bits/(Pixel*Frame)                       : 0.359
    Stream size                              : 1.13 GiB (83%)
    Writing library                          : XviD 1.2.1 (UTC 2008-12-04)

    Audio
    ID                                       : 1
    Format                                   : AC-3
    Format/Info                              : Audio Coding 3
    Mode extension                           : CM (complete main)
    Codec ID                                 : 2000
    Duration                                 : 1h 25mn
    Bit rate mode                            : Constant
    Bit rate                                 : 384 Kbps
    Channel(s)                               : 2 channels
    Channel positions                        : Front: L R
    Sampling rate                            : 48.0 KHz
    Bit depth                                : 16 bits
    Compression mode                         : Lossy
    Stream size                              : 235 MiB (17%)
    Alignment                                : Split accross interleaves
    Interleave, duration                     : 42 ms (1.00 video frame)
    Interleave, preload duration             : 500 ms

    Скриншоты:


    © Оформление by -Lexx- freetor.icu



  • Скачать Кривая линия через торрент https://pic1.kartinco.top/images/61/stazu.jpg Скачать, смотреть онлайн Кривая линия бесплантно в хорошем качестве qw.png По вине автостопщика, спровоцировавшего аварию, молодая женщина попадает в ловушку своего собственного ... 8.7 10 14
    Торрент: Зарегистрирован [2015-11-08 14:33] · скачан: 344 раз
    Статус: √ проверено
    Размер: 1.36 GB
    Как cкачать? Как скачать Кривая линия через торрент | UTorrent

    % Раздел Тема Автор DL S | L
    Фильмы (WEB-DL 720p, 1080p) [ 2.71 GB ] Кривая линия / Curve [2015 WEB-DL 720p] -Lexx- Скачать
    1 | 0

    28-11-2019 20:33  

    Отключить всю рекламу на сайте

    09-11-2015 03:03 Кривая линия Скачать торрент  

    Так себеfreetor.icu



      Дорогой пользователь! Огромная просьба, поблагодарите релизера, оцените раздачу и оставьте свои комментарий, если Вы скачали Кривая линия через торрент бесплатно!
      Комментировать посты могут только пользователи прошедшие не сложную регистрацию
      Показать сообщения:    

      Кривая линия через торрент
      Скачать бесплатно Кривая линия
      Кривая линия скачать торрент
      Кривая линия смотреть онлайн
      Cкачать фильм Кривая линия бесплатно
      Кривая линия скачать торрент в хорошем качестве
      Кривая линия смотреть онлайн бесплатно в хорошем качестве


      Вы не можете начинать темы
      Вы не можете отвечать на сообщения
      Вы не можете редактировать свои сообщения
      Вы не можете удалять свои сообщения
      Вы не можете голосовать в опросах
      Вы не можете прикреплять файлы к сообщениям
      Вы можете скачивать файлы