Anonymous, доброе утро, присоединяйтесь к нам в Telegram!, здесь всегда актуальный адрес сайта, оперативная поддержка и многое другое!

>

5.6

iTunes

7.4

MVO

5.7

MVO

1

7.7

1 сезон

6.8

iTunes

7.3

1 сезон

13

6.7

1 сезон

8.3

RePack

30

ULTIMATE

pack

9.9

Лицензия

ВАЖНО

ИГРА 18+

pack

7.3

RePack

MK11

7.7

RePack

jed

7.8

RePack

fifa19

8.5

RePack

RDR2

RePack

NEED FOR SPEED™ PAYBACK

4 сезон

9 сезон

Бесстыжие 9 сезон

Все сериалы

все сериалы на PB.wtf

RePack

FAR CRY 5

Anonymous, доброе утро, мы катастрофически не успеваем собрать деньги на оплату серверов, помогите нам пожалуйста 5,10,15р., для нас важна любая помощь . В качестве благодарности мы отключим Вам всю рекламу на сайте (укажите свой ник в строку Ваше имя)!

×
  
Magnet ссылка

Я любил вас больше жизни (Расим Исмайлов) [1985, СССР, драма, военный, DVDRip от AVP Studio] freetor.icu

Я любил вас больше жизни через торрент freetor.icu

Размер: 746 MB | Добавлен: 5 лет 11 мес. назад | Торрент скачан:55 раз
Смотреть онлайн Я любил вас больше жизни | Скачать    Ребята, помогите собрать деньги на оплату серверов!!!

07-11-2015 11:11 Я любил вас больше жизни Скачать торрент  

Я любил вас больше жизни
Страна: СССР
Производство: Азербайджанфильм

Жанр: драма, военный
Год выпуска: 1985
Продолжительность: 01:21:50

Перевод: Не требуется
Cубтитры: нет
Оригинальная аудиодорожка: русский

Режиссер: Расим Исмайлов

В ролях:
Рамиз Новрузов, Виктор Тарасов, Александр Денисов, Шахмар Алекперов, Виктор Ильичёв, Александр Поляков, Бадри Какабадзе, Михаил Петров, Олег Соколдынский, Игорь Неупокоев, Гюльнара Ибрагимова, Рза Худиев, Яшар Джавадов, Рамин Рагимов, Асим Гадирли, Гамлет Манахимов...
Полный список актёров

Описание:
Фильм рассказывает о жизни и боевом пути дважды Героя Советского Союза генерал-майора Ази Асланова, геройски погибшего в боях под Елгавой за три месяца до Победы. Своим внимательным отношением к подчиненным, отцовской заботой, а также личной смелостью он завоевал любовь солдат и офицеров. Человек несгибаемого мужества, умевший в бою презирать опасность и быть беспощадным к врагу.

Источник: DVD5 R5
Качество видео: DVDRip
Формат видео: AVI

Видео: 688x320 (2,2:1), 25 fps, XviD ~ 1072 kbps avg, 0.195 bit/pixel
Аудио: 48 kHz, Dolby Digital AC3 2.0, 192 kbps

Раздача от:
Общее
Полное имя : Ya.lyubil.vas.bolshe.zhizni.1985.SATRip_[New-team]_by_AVP_Studio.avi
Формат : AVI
Формат/Информация : Audio Video Interleave
Размер файла : 746 Мбайт
Продолжительность : 1 ч. 21 м.
Общий поток : 1274 Кбит/сек
Программа кодирования : VirtualDubMod 1.5.10.3 | www.virtualdub-fr.org || (build 2550/release)
Библиотека кодирования : VirtualDubMod build 2550/release

Видео
Идентификатор : 0
Формат : MPEG-4 Visual
Профиль формата : Advanced Simple@L5
Параметр BVOP формата : 1
Параметр QPel формата : Нет
Параметр GMC формата : Без точки перехода
Параметр матрицы формата : Выборочная
Идентификатор кодека : XVID
Идентификатор кодека/Подсказка : XviD
Продолжительность : 1 ч. 21 м.
Битрейт : 1072 Кбит/сек
Ширина : 688 пикселей
Высота : 320 пикселей
Соотношение сторон : 2,2:1
Частота кадров : 25,000 кадров/сек
Цветовое пространство : YUV
Субдискретизация насыщенности : 4:2:0
Битовая глубина : 8 бит
Тип развёртки : Прогрессивная
Метод сжатия : С потерями
Бит/(Пиксели*Кадры) : 0.195
Размер потока : 628 Мбайт (84%)
Библиотека кодирования : XviD 73

Аудио
Идентификатор : 1
Формат : AC-3
Формат/Информация : Audio Coding 3
Расширение режима : CM (complete main)
Параметр Endianness формата : Big
Идентификатор кодека : 2000
Продолжительность : 1 ч. 21 м.
Вид битрейта : Постоянный
Битрейт : 192 Кбит/сек
Каналы : 2 канала
Расположение каналов : Front: L R
Частота : 48,0 КГц
Метод сжатия : С потерями
Размер потока : 112 Мбайт (15%)
Выравнивание : Разделение по промежуткам
Продолжительность промежутка : 40 мс. (1,00 видеокадр)
Время предзагрузки промежутка : 500 мс
freetor.icu



Скачать Я любил вас больше жизни через торрент http://i4.imageban.ru/out/2015/11/07/f2f50681dbde19716e64695ed22f3262.png Скачать, смотреть онлайн Я любил вас больше жизни бесплантно в хорошем качестве Описание:Фильм рассказывает о жизни и боевом пути дважды Героя Советского Союза генерал-майора Ази Асланова, геройски погибшего в боях под ... 5 10 1
Торрент: Зарегистрирован [2015-11-07 11:11] · скачан: 55 раз
Статус: √ проверено
Размер: 746 MB
Как cкачать? Как скачать Я любил вас больше жизни через торрент | UTorrent

% Раздел Тема Автор DL S | L
Кино СССР [ 744 MB ] Я любил вас больше жизни [1985 СССР военный DVDRip-AVC от AVP Studio] AVP Studio Скачать
1 | 0

28-11-2019 20:33  

Отключить всю рекламу на сайте

07-11-2015 12:07 Я любил вас больше жизни Скачать торрент  

Отличное киноfreetor.icu



07-11-2015 12:23 Я любил вас больше жизни Скачать торрент  

Да нуfreetor.icu



    Дорогой пользователь! Огромная просьба, поблагодарите релизера, оцените раздачу и оставьте свои комментарий, если Вы скачали Я любил вас больше жизни через торрент бесплатно!
    Комментировать посты могут только пользователи прошедшие не сложную регистрацию
    Показать сообщения:    

    Я любил вас больше жизни через торрент
    Скачать бесплатно Я любил вас больше жизни
    Я любил вас больше жизни скачать торрент
    Я любил вас больше жизни смотреть онлайн
    Cкачать фильм Я любил вас больше жизни бесплатно
    Я любил вас больше жизни скачать торрент в хорошем качестве
    Я любил вас больше жизни смотреть онлайн бесплатно в хорошем качестве


    Вы не можете начинать темы
    Вы не можете отвечать на сообщения
    Вы не можете редактировать свои сообщения
    Вы не можете удалять свои сообщения
    Вы не можете голосовать в опросах
    Вы не можете прикреплять файлы к сообщениям
    Вы можете скачивать файлы