Присоединяйтесь к нам в Telegram!, здесь всегда актуальный адрес сайта, оперативная поддержка и многое другое!!

>

5.9

iTunes

7.4

iTunes

9.4

1 сезон

1

7.4

2 сезон

7.2

iTunes

7.3

1 сезон

13

6.1

iTunes

8.3

Пиратка

30

ULTIMATE

pack

9.9

Лицензия

ВАЖНО

ИГРА 18+

pack

7.3

RePack

MK11

7.7

RePack

jed

7.8

RePack

fifa19

8.5

RePack

RDR2

RePack

NEED FOR SPEED™ PAYBACK

5 сезон

9 сезон

Бесстыжие 9 сезон

Все сериалы

все сериалы на PB.wtf

RePack

FAR CRY 5

Anonymous, доброй ночи, мы катастрофически не успеваем собрать деньги на оплату серверов, помогите нам пожалуйста 5,10,15р., для нас важна любая помощь . В качестве благодарности мы отключим Вам всю рекламу на сайте (укажите свой ник в строку Ваше имя)!

×
  
Magnet ссылка

Девушка без комплексов / Trainwreck (Джудд Апатоу) [2015 г., мелодрама, комедия, HDRip, Дубляж [iTunes]] freetor.icu

Девушка без комплексов через торрент freetor.icu

Размер: 1.45 GB | Добавлен: 6 лет 1 мес. назад | Торрент скачан:949 раз
Смотреть онлайн Девушка без комплексов | Скачать    Ребята, помогите собрать деньги на оплату серверов!!!

05-11-2015 15:46 Девушка без комплексов Скачать торрент  


Девушка без комплексов / Trainwreck
Год выпуска: 2015
Страна: США
Жанр: мелодрама, комедия
Продолжительность: 02:04:45
Перевод: Дублированный [Лицензия / iTunes]
Субтитры: нет
Режиссер: Джудд Апатоу

В ролях:
Эми Бет Шумер, Билл Хейдер, Бри Ларсон, Колин Куинн, Джон Сина, Ванесса Байер, Майк Бирбиглия, Эзра Миллер, Дэйв Аттелль, Тильда Суинтон

Описание:

У симпатичной девушки Эми никогда не было серьезных отношений. Она придерживается свободных взглядов и обычно не ходит дважды с одним парнем на свидание. Будучи сотрудницей крупного мужского издания, она получает задание от шефа написать статью о спортивном враче Ароне. Эми и не рассчитывала, что деловая встреча с доктором изменит ее жизнь.
Качество: HDRip
Формат: AVI
Видео кодек: XviD
Аудио кодек: AC3
Видео:XviD, 1276 Кбит/сек, 720x304, 23,976 кадра/сек
Аудио:AC3, 48,0 КГц, 384 Кбит/сек, 6 каналов,16 бит

Общее
Полное имя : E:\D3Bywk4.6e3.K0mpP0m1c0B.2015.D.HDRip.1.46GB.avi
Формат : AVI
Формат/Информация : Audio Video Interleave
Размер файла : 1,45 Гбайт
Продолжительность : 2 ч. 4 м.
Общий поток : 1669 Кбит/сек
Программа кодирования : VirtualDubMod 1.5.10.2 (build 2540/release)
Библиотека кодирования : VirtualDubMod build 2540/release

Видео
Идентификатор : 0
Формат : MPEG-4 Visual
Профиль формата : Advanced [email protected]
Параметр BVOP формата : 2
Параметр QPel формата : Нет
Параметр GMC формата : Без точки перехода
Параметр матрицы формата : Default (MPEG)
Идентификатор кодека : XVID
Идентификатор кодека/Подсказка : XviD
Продолжительность : 2 ч. 4 м.
Битрейт : 1276 Кбит/сек
Ширина : 720 пикселей
Высота : 304 пикселя
Соотношение сторон : 2,35:1
Частота кадров : 23,976 кадра/сек
Цветовое пространство : YUV
Субдискретизация насыщенности : 4:2:0
Битовая глубина : 8 бит
Тип развёртки : Прогрессивная
Метод сжатия : С потерями
Бит/(Пиксели*Кадры) : 0.243
Размер потока : 1,11 Гбайт (76%)
Библиотека кодирования : XviD 1.2.1 (UTC 2008-12-04)

Аудио
Идентификатор : 1
Формат : AC-3
Формат/Информация : Audio Coding 3
Расширение режима : CM (complete main)
Параметр Endianness формата : Big
Идентификатор кодека : 2000
Продолжительность : 2 ч. 4 м.
Вид битрейта : Постоянный
Битрейт : 384 Кбит/сек
Каналы : 6 каналов
Расположение каналов : Front: L C R, Side: L R, LFE
Частота : 48,0 КГц
Битовая глубина : 16 бит
Метод сжатия : С потерями
Размер потока : 342 Мбайт (23%)
Выравнивание : Разделение по промежуткам
Продолжительность промежутка : 42 мс. (1,00 видеокадр)
Время предзагрузки промежутка : 500 мс.

скриншот   скриншот   скриншот   скриншот  

freetor.icu



Скачать Девушка без комплексов через торрент https://pic.kartinco.top/images/11/semq7.jpg Скачать, смотреть онлайн Девушка без комплексов бесплантно в хорошем качестве Описание:У симпатичной девушки Эми никогда не было серьезных отношений. Она придерживается свободных взглядов и обычно не ходит дважды с ... 9.1 10 32
Торрент: Зарегистрирован [2015-11-05 15:46] · скачан: 949 раз
Статус: √ проверено
Размер: 1.45 GB
Как cкачать? Как скачать Девушка без комплексов через торрент | UTorrent

% Раздел Тема Автор DL S | L
Фильмы 2015 [DVDrip, WEB-DLRip, HDrip] [ 2.05 GB ] Девушка без комплексов / Trainwreck [2015 HDRip] killermax2013 Скачать
1 | 0
Фильмы 2015 [DVDrip, WEB-DLRip, HDrip] [ 2.18 GB ] Девушка без комплексов / Trainwreck [2015 BDRip-AVC] DUB potroks Скачать
1 | 0
Фильмы [HD 720p, 1080p] (Хороший звук DUB, MVO) [ 11.54 GB ] Девушка без комплексов / Trainwreck [2015 BDRip 1080p от _denis_100 / NNNB] - [] _denis_100 Скачать
1 | 0
Фильмы 2015 [DVDrip, WEB-DLRip, HDrip] [ 1.46 GB ] Девушка без комплексов / Trainwreck [2015 BDRip-AVC] DUB potroks Скачать
1 | 0
Фильмы 2015 [DVDrip, WEB-DLRip, HDrip] [ 2.18 GB ] Девушка без комплексов / Trainwreck [2015 BDRip-AVC от sokol_ok] [Театральная версия] DUB sokol_ok Скачать
2 | 0
Фильмы 2015 [DVDrip, WEB-DLRip, HDrip] [ 1.46 GB ] Девушка без комплексов / Trainwreck [2015 BDRip-AVC от sokol_ok] [Театральная версия] DUB sokol_ok Скачать
2 | 0
# Фильмы [HD 720p, 1080p] (Хороший звук DUB, MVO) [ 5.59 GB ] Девушка без комплексов / Trainwreck [2015 BDRip 720p] $-DRON-$ Скачать
1 | 0


Последний раз редактировалось: $-DRON-$ (2015-11-05 19:07), всего редактировалось 4 раз(а)

28-11-2019 20:33  

Отключить всю рекламу на сайте

05-11-2015 16:14 Девушка без комплексов Скачать торрент  

предоставте отчет медиа инфо
тех.данные не полные
пример Видео: XviD , 720x400, 25 fps, 1469 kbps
Аудио: AC3, 384 kbps, 5.1 ch, 48 kHz
Правила раздела Фильмы. Как правильно оформить раздачу фильма freetor.icu



05-11-2015 16:34 Девушка без комплексов Скачать торрент  

Видео: 1276 Кбит/сек, 720x304, 23,976 кадра/сек
Аудио:48,0 КГц, 384 Кбит/сек, 6 каналов,16 бит
еще раз внимательнейfreetor.icu



    Дорогой пользователь! Огромная просьба, поблагодарите релизера, оцените раздачу и оставьте свои комментарий, если Вы скачали Девушка без комплексов через торрент бесплатно!
    Комментировать посты могут только пользователи прошедшие не сложную регистрацию
    Показать сообщения:    

    Девушка без комплексов через торрент
    Скачать бесплатно Девушка без комплексов
    Девушка без комплексов скачать торрент
    Девушка без комплексов смотреть онлайн
    Cкачать фильм Девушка без комплексов бесплатно
    Девушка без комплексов скачать торрент в хорошем качестве
    Девушка без комплексов смотреть онлайн бесплатно в хорошем качестве


    Вы не можете начинать темы
    Вы не можете отвечать на сообщения
    Вы не можете редактировать свои сообщения
    Вы не можете удалять свои сообщения
    Вы не можете голосовать в опросах
    Вы не можете прикреплять файлы к сообщениям
    Вы можете скачивать файлы