Присоединяйтесь к нам в Telegram!, здесь всегда актуальный адрес сайта, оперативная поддержка и многое другое!!

>

5.9

iTunes

7.4

iTunes

9.4

1 сезон

1

7.4

2 сезон

7.2

iTunes

7.3

1 сезон

13

6.1

iTunes

8.3

Пиратка

30

ULTIMATE

pack

9.9

Лицензия

ВАЖНО

ИГРА 18+

pack

7.3

RePack

MK11

7.7

RePack

jed

7.8

RePack

fifa19

8.5

RePack

RDR2

RePack

NEED FOR SPEED™ PAYBACK

5 сезон

9 сезон

Бесстыжие 9 сезон

Все сериалы

все сериалы на PB.wtf

RePack

FAR CRY 5

Anonymous, доброй ночи, мы катастрофически не успеваем собрать деньги на оплату серверов, помогите нам пожалуйста 5,10,15р., для нас важна любая помощь . В качестве благодарности мы отключим Вам всю рекламу на сайте (укажите свой ник в строку Ваше имя)!

×
  
Magnet ссылка

Я плюю на ваши могилы 3 / I Spit on Your Grave 3 (Р.Д. Браунштейн / R.D. Braunstein) [2015, триллер, ужасы, криминал, BDRip-AVC от potroks] MVO [iTunes] freetor.icu

Я плюю на ваши могилы 3 через торрент freetor.icu

Размер: 2.14 GB | Добавлен: 6 лет 1 мес. назад | Торрент скачан:1030 раз
Смотреть онлайн Я плюю на ваши могилы 3 | Скачать    Ребята, помогите собрать деньги на оплату серверов!!!

04-11-2015 09:53 Я плюю на ваши могилы 3 Скачать торрент  

Я плюю на ваши могилы 3 / I Spit on Your Grave 3
Год выпуска: 2015
Страна: США / Cinetel Films
Жанр: триллер, ужасы, криминал
Продолжительность: 01:31:30
Перевод: Профессиональный (многоголосый) [iTunes]
Субтитры: английские (Full), английские (SDH), английские (SDH-Colored)
Навигация по главам: есть
Режиссер: Р.Д. Браунштейн / R.D. Braunstein
В ролях:

Сара Батлер (Jennifer Hills), Дженнифер Лэндон (Marla), Даг МакКиэн (Oscar), Гэбриел Хоган (Detective McDylan), Харли Джейн Козак (Therapist), Мишель Херд (Detective Boyle), Мэг Рейч (Cassie), Расселл Чарльз Питтс (Matthew), Карен Страссман (Lynne), Эндрю Диц (Nicholas Woods), Адам Даннеллс (Cole Watson), Кристофер Хоффман (Ron Merrick)
Описание: Главная героиня фильма писательница Дженнифер Хиллз начала новую жизнь. Она посещает психотерапевта, и кризисную группу для жертв изнасилований. В группе она знакомится с бойкой и яркой девушкой, которая убеждает её, что месть - это и есть правосудие. Вместе, они запугивают мужчину, который насилует свою падчерицу-подростка из их группы. А потом, подругу насилует и убивает её бывший парень. Пришло время Дженнифер встретиться со своим прошлым. Понесут ли преступники заслуженное наказание? И по какую сторону окажется сама Дженнифер?

Качество: BDRip-AVC
Формат: MKV
Видео кодек: AVC
Аудио кодек: AC3
Видео: 1152x480 (2.40:1), 2514 kbps, 23,976 fps, 0,190 bit/pixel
Аудио №1: AC3 / 5.1 / 48 kHz / 384 kbps / 16 bit | RUS
Аудио №2: AC3 / 5.1 / 48 kHz / 448 kbps / 16 bit | ENG

Релиз группы:
Автор рипа: potroks

Код:

General
Unique ID                   : 201413395789413303690173650793543255682 (0x9786CF1B9E004D378AC0BE1C38044682)
Complete name               : Ya.Pluyu.Na.Vashy.Mogily.2015.DUAL.BDRip.x264.-HELLYWOOD.mkv
Format                      : Matroska
Format version              : Version 4 / Version 2
File size                   : 2.14 GiB
Duration                    : 1h 31mn
Overall bit rate            : 3 348 Kbps
Movie name                  : I Spit on Your Grave 3 (2015) - HELLYWOOD
Encoded date                : UTC 2010-02-22 21:41:31
Writing application         : mkvmerge v5.8.0 ('No Sleep / Pillow') built on Sep 30 2012 10:57:14
Writing library             : libebml v1.3.0 + libmatroska v1.4.0

Video
ID                          : 1
Format                      : AVC
Format/Info                 : Advanced Video Codec
Format profile              : [email protected]
Format settings, CABAC      : Yes
Format settings, ReFrames   : 10 frames
Codec ID                    : V_MPEG4/ISO/AVC
Duration                    : 1h 31mn
Bit rate                    : 2 514 Kbps
Width                       : 1 152 pixels
Height                      : 480 pixels
Display aspect ratio        : 2.40:1
Frame rate mode             : Constant
Frame rate                  : 23.976 fps
Color space                 : YUV
Chroma subsampling          : 4:2:0
Bit depth                   : 8 bits
Scan type                   : Progressive
Bits/(Pixel*Frame)          : 0.190
Stream size                 : 1.57 GiB (73%)
Title                       : potroks
Writing library             : x264 core 148 r2597M e86f3a1
Encoding settings           : cabac=1 / ref=10 / deblock=1:-2:-2 / analyse=0x3:0x133 / me=umh / subme=11 / psy=1 / psy_rd=1.00:0.10 / mixed_ref=1 / me_range=48 / chroma_me=1 / trellis=2 / 8x8dct=1 / cqm=0 / deadzone=21,11 / fast_pskip=0 / chroma_qp_offset=-3 / threads=10 / lookahead_threads=2 / sliced_threads=0 / nr=0 / decimate=1 / interlaced=0 / bluray_compat=0 / constrained_intra=0 / bframes=11 / b_pyramid=2 / b_adapt=2 / b_bias=0 / direct=3 / weightb=1 / open_gop=0 / weightp=2 / keyint=250 / keyint_min=23 / scenecut=40 / intra_refresh=0 / rc=2pass / mbtree=0 / bitrate=2514 / ratetol=1.0 / qcomp=0.70 / qpmin=0 / qpmax=69 / qpstep=4 / cplxblur=20.0 / qblur=0.5 / ip_ratio=1.40 / pb_ratio=1.30 / aq=1:0.80
Language                    : English
Default                     : Yes
Forced                      : No

Audio #1
ID                          : 2
Format                      : AC-3
Format/Info                 : Audio Coding 3
Mode extension              : CM (complete main)
Format settings, Endianness : Big
Codec ID                    : A_AC3
Duration                    : 1h 31mn
Bit rate mode               : Constant
Bit rate                    : 384 Kbps
Channel(s)                  : 6 channels
Channel positions           : Front: L C R, Side: L R, LFE
Sampling rate               : 48.0 KHz
Compression mode            : Lossy
Stream size                 : 251 MiB (11%)
Title                       : MVO | DD 5.1 @ 384 kbps - iTunes
Language                    : Russian
Default                     : Yes
Forced                      : No

Audio #2
ID                          : 3
Format                      : AC-3
Format/Info                 : Audio Coding 3
Mode extension              : CM (complete main)
Format settings, Endianness : Big
Codec ID                    : A_AC3
Duration                    : 1h 31mn
Bit rate mode               : Constant
Bit rate                    : 448 Kbps
Channel(s)                  : 6 channels
Channel positions           : Front: L C R, Side: L R, LFE
Sampling rate               : 48.0 KHz
Compression mode            : Lossy
Stream size                 : 293 MiB (13%)
Title                       : Original | DD 5.1 @ 448 kbps
Language                    : English
Default                     : No
Forced                      : No

Text #1
ID                          : 4
Format                      : UTF-8
Codec ID                    : S_TEXT/UTF8
Codec ID/Info               : UTF-8 Plain Text
Title                       : Full
Language                    : English
Default                     : No
Forced                      : No

Text #2
ID                          : 5
Format                      : UTF-8
Codec ID                    : S_TEXT/UTF8
Codec ID/Info               : UTF-8 Plain Text
Title                       : SDH
Language                    : English
Default                     : No
Forced                      : No

Text #3
ID                          : 6
Format                      : UTF-8
Codec ID                    : S_TEXT/UTF8
Codec ID/Info               : UTF-8 Plain Text
Title                       : SDH-Colored
Language                    : English
Default                     : No
Forced                      : No

Menu
00:00:00.000                : :(01)00:00:00:000
00:06:34.394                : :(02)00:06:34:394
00:14:42.047                : :(03)00:14:42:047
00:20:19.218                : :(04)00:20:19:218
00:28:29.541                : :(05)00:28:29:541
00:39:15.019                : :(06)00:39:15:019
00:47:19.044                : :(07)00:47:19:044
00:58:44.354                : :(08)00:58:44:354
01:08:09.752                : :(09)01:08:09:752
01:12:49.531                : :(10)01:12:49:531
01:18:53.729                : :(11)01:18:53:729
01:27:29.911                : :(12)01:27:29:911
01:31:30.485                : :(13)01:31:30:485

freetor.icu



Скачать Я плюю на ваши могилы 3 через торрент http://i73.fastpic.ru/big/2015/1104/6c/6ea48223b9b1415812dfe2542aed786c.png Скачать, смотреть онлайн Я плюю на ваши могилы 3 бесплантно в хорошем качестве Описание: Главная героиня фильма писательница Дженнифер Хиллз начала новую жизнь. Она посещает психотерапевта, и кризисную группу для ... 9.1 10 18
Торрент: Зарегистрирован [2015-11-04 09:53] · скачан: 1 030 раз
Статус: √ проверено
Размер: 2.14 GB
Как cкачать? Как скачать Я плюю на ваши могилы 3 через торрент | UTorrent

% Раздел Тема Автор DL S | L
Фильмы (Blu-ray, BD-Remux, HDDVD) [ 20.24 GB ] Я плюю на ваши могилы 3 / I Spit on Your Grave 3 [2015 BDRemux] MVO кэп Скачать
1 | 0
Фильмы 2015 [DVDrip, WEB-DLRip, HDrip] [ 1.44 GB ] Я плюю на ваши могилы 3 / I Spit on Your Grave 3 [2015 HDRip] MVO [ - ] -Lexx- Скачать
1 | 0

28-11-2019 20:33  

Отключить всю рекламу на сайте

08-11-2015 18:11 Я плюю на ваши могилы 3 Скачать торрент  

Сколько она еще плевать-то будет freetor.icu



11-11-2015 17:50 Я плюю на ваши могилы 3 Скачать торрент  

alnosik писал(а):

Сколько она еще плевать-то будет

пока слюна естьfreetor.icu



    Дорогой пользователь! Огромная просьба, поблагодарите релизера, оцените раздачу и оставьте свои комментарий, если Вы скачали Я плюю на ваши могилы 3 через торрент бесплатно!
    Комментировать посты могут только пользователи прошедшие не сложную регистрацию
    Показать сообщения:    

    Я плюю на ваши могилы 3 через торрент
    Скачать бесплатно Я плюю на ваши могилы 3
    Я плюю на ваши могилы 3 скачать торрент
    Я плюю на ваши могилы 3 смотреть онлайн
    Cкачать фильм Я плюю на ваши могилы 3 бесплатно
    Я плюю на ваши могилы 3 скачать торрент в хорошем качестве
    Я плюю на ваши могилы 3 смотреть онлайн бесплатно в хорошем качестве


    Вы не можете начинать темы
    Вы не можете отвечать на сообщения
    Вы не можете редактировать свои сообщения
    Вы не можете удалять свои сообщения
    Вы не можете голосовать в опросах
    Вы не можете прикреплять файлы к сообщениям
    Вы можете скачивать файлы