>

8.4

Хороший звук

6.1

MVO

6.4

Line & MVO

1

7.4

1 сезон

6.8

iTunes

7.2

1 сезон

13

6.7

1 сезон

8.3

RePack

30

Deluxe

pack

9.9

Лицензия

ВАЖНО

ИГРА 18+

pack

7.3

RePack

MK11

7.7

RePack

jed

7.8

RePack

fifa19

8.5

RePack

RDR2

RePack

NEED FOR SPEED™ PAYBACK

4 сезон

9 сезон

Бесстыжие 9 сезон

Все сериалы

все сериалы на PB.wtf

RePack

FAR CRY 5

Anonymous, доброе утро, мы катастрофически не успеваем собрать деньги на оплату серверов, помогите нам пожалуйста 5,10,15р., для нас важна любая помощь . В качестве благодарности мы отключим Вам всю рекламу на сайте (укажите свой ник в строку Ваше имя)!

×
  
Magnet ссылка

Братья / Brothers (Каран Мальхотра) [2015, боевик, драма, спорт, WEB-DLRip, Любительский (двухголосый) [2D] freetor.icu

Братья через торрент freetor.icu

Размер: 2.05 GB | Добавлен: 5 лет 10 мес. назад | Торрент скачан:137 раз
Смотреть онлайн Братья | Скачать    Ребята, помогите собрать деньги на оплату серверов!!!

01-11-2015 18:55 Братья Скачать торрент  


Братья / Brothers


ИНФОРМАЦИЯ:
Год выпуска:2015
Страна: Индия, США
Жанр: боевик, драма, спорт
Продолжительность: 02:36:02
Перевод: Любительский (двухголосый) [2D]
Режиссер: Каран Мальхотра

В Ролях:


Акшай Кумар (David Fernandes), Джеки Шрофф (Garson Fernandes), Сидхарт Мальхотра (Monty Fernandes), Жаклин Фернандес (Jenny), Meghan Jadhav (Young David), Шефали Шетти (Mary Fernandes), Киран Кумар (Peter Briganza), Конан Стивенс (Luca), Дэниэл Бернхард (Max Potter), Рон Смуренбург (Hammer), Захари Соффин, Шэд Гаспар (Ronnie Cross)

Описание:
Фильм рассказывает драматическую историю двух братьев, пути которых разошлись из-за трагических обстоятельств. Это картина о долге и жизненных ценностях, показанных сквозь призму жизни братьев и их отца — крепких и гордых людей, фильм о семье, об обидах, которые мы носим в себе десятилетиями, о боли, которую мы причиняем подчас бездумно, и о прощении, которому всегда должно найтись место в наших сердцах.

  • Мировая премьера:13 августа 2015

    ТЕХ.ДАННЫЕ:
    Качество: WEB-DLRip
    Формат: AVI
    Видео: XviD, 720x304 (2.35:1), 23,976 fps
    Аудио: AC3 / 5.1 / 48 kHz / 448 kbps /


    General
    Complete name : D:\Торенты\Brat1a.2015.L2.WEB-DLRip.2100Mb.avi
    Format : AVI
    Format/Info : Audio Video Interleave
    Format profile : OpenDML
    Format settings : rec
    File size : 2.05 GiB
    Duration : 2h 36mn
    Overall bit rate : 1 877 Kbps
    Writing application : AVI-Mux GUI 1.17.8.3, Feb 16 201019:42:50

    Video
    ID : 0
    Format : MPEG-4 Visual
    Codec ID : XVID
    Codec ID/Hint : XviD
    Duration : 2h 36mn
    Source duration : 9s 635ms
    Bit rate : 438 bps
    Width : 720 pixels
    Height : 304 pixels
    Display aspect ratio : 2.35:1
    Frame rate : 23.976 fps
    Color space : YUV
    Chroma subsampling : 4:2:0
    Compression mode : Lossy
    Bits/(Pixel*Frame) : 0.000
    Stream size : 500 KiB (0%)

    Audio
    ID : 1
    Format : AC-3
    Format/Info : Audio Coding 3
    Codec ID : 2000
    Duration : 2h 36mn
    Source duration : 9s 856ms
    Bit rate mode : Constant
    Bit rate : 448 Kbps
    Channel(s) : 6 channels
    Sampling rate : 48.0 KHz
    Compression mode : Lossy
    Stream size : 539 KiB (0%)
    Alignment : Aligned on interleaves
    Interleave, duration : 63 ms (1.50 video frames)
    Interleave, preload duration : 192 ms
    Title : T2_Audio - English
    Скриншоты:


    © Оформление by Ворон
    freetor.icu



  • Скачать Братья через торрент https://pic1.kartinco.top/images/61/ordi9.jpg Скачать, смотреть онлайн Братья бесплантно в хорошем качестве Описание: Фильм рассказывает драматическую историю двух братьев, пути которых разошлись из-за трагических обстоятельств. Это картина о ... 8.2 10 5
    Торрент: Зарегистрирован [2015-11-01 18:55] · скачан: 137 раз
    Статус: √ проверено
    Размер: 2.05 GB
    Как cкачать? Как скачать Братья через торрент | UTorrent

    % Раздел Тема Автор DL S | L
    Фильмы 2019-2020 [DVDrip, WEB-DLRip, HDrip] (DUB, MVO) [ 1.46 GB ] Сводные братья / Half Brothers [2020 BDRip] bober100 Скачать
    1 | 0
    Фильмы 2019-2020 [DVDrip, WEB-DLRip, HDrip] (DUB, MVO) [ 746 MB ] Сводные братья / Half Brothers [2020 BDRip] bober100 Скачать
    1 | 0
    Фильмы (Blu-ray, BD-Remux, HDDVD) [ 26.44 GB ] Сводные братья / Half Brothers [2020 BD Remux 1080p] bober100 Скачать
    1 | 0
    Фильмы [HD 720p, 1080p] (Хороший звук DUB, MVO) [ 4.82 GB ] Сводные братья / Half Brothers [2020 BDRip 720p] bober100 Скачать
    2 | 0
    Фильмы [HD 720p, 1080p] (Хороший звук DUB, MVO) [ 10.03 GB ] Сводные братья / Half Brothers [2020 BDRip 1080p] bober100 Скачать
    2 | 0
    Фильмы 2017 [DVDrip, WEB-DLRip, HDrip] (DUB, MVO) [ 1.44 GB ] Братья Мейсон / The Mason Brothers [2017 WEB-DLRip-AVC] MVO [HDRezka Studio] от MediaBit Lithuania Скачать
    1 | 0
    Фильмы [HD 720p, 1080p] (Хороший звук DUB, MVO) [ 5.33 GB ] Братья / Brothers [2009 военный BDRip-HEVC 1080p] MVO + AVO RealOldGamer Скачать
    3 | 0

    28-11-2019 20:33  

    Отключить всю рекламу на сайте

      Дорогой пользователь! Огромная просьба, поблагодарите релизера, оцените раздачу и оставьте свои комментарий, если Вы скачали Братья через торрент бесплатно!
      Комментировать посты могут только пользователи прошедшие не сложную регистрацию
      Показать сообщения:    

      Братья через торрент
      Скачать бесплатно Братья
      Братья скачать торрент
      Братья смотреть онлайн
      Cкачать фильм Братья бесплатно
      Братья скачать торрент в хорошем качестве
      Братья смотреть онлайн бесплатно в хорошем качестве


      Вы не можете начинать темы
      Вы не можете отвечать на сообщения
      Вы не можете редактировать свои сообщения
      Вы не можете удалять свои сообщения
      Вы не можете голосовать в опросах
      Вы не можете прикреплять файлы к сообщениям
      Вы можете скачивать файлы