Присоединяйтесь к нам в Telegram!, здесь всегда актуальный адрес сайта, оперативная поддержка и многое другое!!

>

5.9

iTunes

7.4

iTunes

9.4

1 сезон

1

7.4

2 сезон

7.2

iTunes

7.3

iTunes

13

6.1

iTunes

8.3

Пиратка

30

ULTIMATE

pack

9.9

Лицензия

ВАЖНО

ИГРА 18+

pack

7.3

RePack

MK11

7.7

RePack

jed

7.8

RePack

fifa19

8.5

RePack

RDR2

RePack

NEED FOR SPEED™ PAYBACK

5 сезон

9 сезон

Бесстыжие 9 сезон

Все сериалы

все сериалы на PB.wtf

RePack

FAR CRY 5

Anonymous, доброе утро, мы катастрофически не успеваем собрать деньги на оплату серверов, помогите нам пожалуйста 5,10,15р., для нас важна любая помощь . В качестве благодарности мы отключим Вам всю рекламу на сайте (укажите свой ник в строку Ваше имя)!

×
  
Magnet ссылка

Супер Майк XXL / Magic Mike XXL (Грегори Джейкобс) [2015 г., комедия, музыка, драма, HDRip, Дубляж "Лицензия"] freetor.icu

Супер Майк XXL через торрент freetor.icu

Размер: 2.19 GB | Добавлен: 6 лет 1 мес. назад | Торрент скачан:48 раз
Смотреть онлайн Супер Майк XXL | Скачать    Ребята, помогите собрать деньги на оплату серверов!!!

01-11-2015 14:48 Супер Майк XXL Скачать торрент  

Супер Майк XXL / Magic Mike XXL
Год выпуска: 2015
Страна: США / Warner Bros., Iron Horse Entertainment (II)
Жанр: комедия, музыка, драма
Продолжительность: 01:55:17
Перевод: Дубляж (Лицензия)

Режиссер: Грегори Джейкобс

IMDB 5.90 (19 791)


В ролях: Ченнинг Татум, Джо Манганьелло, Мэтт Бомер, Кевин Нэш, Эмбер Хёрд Депп, Элизабет Бэнкс, Адам Родригес, Габриэль Иглесиас, Энди МакДауэлл, Джада Пинкетт Смит

Описание: Прошло три года после того, как Майк на пике своей популярности закончил карьеру стриптизера, а клуб «Короли Тампы» уже почти готов признать свое поражение. Но проделать это в своем стиле: готовясь «зажечь» Мёртл-Бич, они снова разделят сцену с легендарным Супер Майком. Дорога на последнее шоу проходит через Джеконсвилл и Саванну, где Майк и парни повстречают старых знакомых и заведут новых, а также выучат пару неизбитых движений, тряхнув при этом стариной.

Качество: HDRip
Формат: AVI
Видео кодек: XviD
Аудио кодек: AC3
Видео: 720x304 (2.37:1), 23.976 fps, XviD build 50 ~2265 kbps avg, 0.43 bit/pixel
Аудио: 48 kHz, AC3 Dolby Digital, 3/2 (L,C,R,l,r) + LFE ch, ~448 kbps

Общее
Полное имя : F:\кино\Супер Майк XXL.2015.HDRip.avi
Формат : AVI
Формат/Информация : Audio Video Interleave
Профиль формата : OpenDML
Размер файла : 2,19 Гбайт
Продолжительность : 1 ч. 55 м.
Общий поток : 2720 Кбит/сек
Программа кодирования : VirtualDubMod 1.5.10.3 | www.virtualdub-fr.org || (build 2550/release)
Библиотека кодирования : VirtualDubMod build 2550/release

Видео
Идентификатор : 0
Формат : MPEG-4 Visual
Профиль формата : Advanced [email protected]
Параметр BVOP формата : 2
Параметр QPel формата : Нет
Параметр GMC формата : Без точки перехода
Параметр матрицы формата : Default (H.263)
Идентификатор кодека : XVID
Идентификатор кодека/Подсказка : XviD
Продолжительность : 1 ч. 55 м.
Битрейт : 2261 Кбит/сек
Ширина : 720 пикселей
Высота : 304 пикселя
Соотношение сторон : 2,35:1
Частота кадров : 23,976 кадра/сек
Цветовое пространство : YUV
Субдискретизация насыщенности : 4:2:0
Битовая глубина : 8 бит
Тип развёртки : Прогрессивная
Метод сжатия : С потерями
Бит/(Пиксели*Кадры) : 0.431
Размер потока : 1,82 Гбайт (83%)
Библиотека кодирования : XviD 1.2.1 (UTC 2008-12-04)

Аудио
Идентификатор : 1
Формат : AC-3
Формат/Информация : Audio Coding 3
Расширение режима : CM (complete main)
Параметр Endianness формата : Big
Идентификатор кодека : 2000
Продолжительность : 1 ч. 55 м.
Вид битрейта : Постоянный
Битрейт : 448 Кбит/сек
Каналы : 6 каналов
Расположение каналов : Front: L C R, Side: L R, LFE
Частота : 48,0 КГц
Метод сжатия : С потерями
Размер потока : 369 Мбайт (16%)
Выравнивание : Разделение по промежуткам
Продолжительность промежутка : 42 мс. (1,00 видеокадр)
Время предзагрузки промежутка : 500 мс.

freetor.icu



Скачать Супер Майк XXL через торрент https://pic1.kartinco.top/images/10/6vqjz.jpg Скачать, смотреть онлайн Супер Майк XXL бесплантно в хорошем качестве Описание: Прошло три года после того, как Майк на пике своей популярности закончил карьеру стриптизера, а клуб «Короли Тампы» уже почти ... 7.5 10 4
Торрент: Зарегистрирован [2015-11-01 14:48] · скачан: 48 раз
Статус: √ проверено
Размер: 2.19 GB
Как cкачать? Как скачать Супер Майк XXL через торрент | UTorrent

% Раздел Тема Автор DL S | L
Фильмы (Blu-ray, BD-Remux, HDDVD) [ 33.01 GB ] Супер Майк XXL / Magic Mike XXL [2015 музыка Blu-Ray] Russian Mafia Скачать
1 | 0
Фильмы 2015 [DVDrip, WEB-DLRip, HDrip] [ 2.18 GB ] Супер Майк XXL / Magic Mike XXL [2015 музыка BDRip-AVC от sokol_ok] DUB sokol_ok Скачать
2 | 0
Фильмы 2015 [DVDrip, WEB-DLRip, HDrip] [ 1.46 GB ] Супер Майк XXL / Magic Mike XXL [2015 музыка BDRip-AVC от sokol_ok] DUB sokol_ok Скачать
2 | 0
Фильмы 2015 [DVDrip, WEB-DLRip, HDrip] [ 2.18 GB ] Супер Майк XXL / Magic Mike XXL [2015 музыка BDRip-AVC] DUB potroks Скачать
1 | 0

28-11-2019 20:33  

Отключить всю рекламу на сайте

    Дорогой пользователь! Огромная просьба, поблагодарите релизера, оцените раздачу и оставьте свои комментарий, если Вы скачали Супер Майк XXL через торрент бесплатно!
    Комментировать посты могут только пользователи прошедшие не сложную регистрацию
    Показать сообщения:    

    Супер Майк XXL через торрент
    Скачать бесплатно Супер Майк XXL
    Супер Майк XXL скачать торрент
    Супер Майк XXL смотреть онлайн
    Cкачать фильм Супер Майк XXL бесплатно
    Супер Майк XXL скачать торрент в хорошем качестве
    Супер Майк XXL смотреть онлайн бесплатно в хорошем качестве


    Вы не можете начинать темы
    Вы не можете отвечать на сообщения
    Вы не можете редактировать свои сообщения
    Вы не можете удалять свои сообщения
    Вы не можете голосовать в опросах
    Вы не можете прикреплять файлы к сообщениям
    Вы можете скачивать файлы