>

5.6

iTunes

6.1

MVO

5.7

MVO

1

7.4

1 сезон

6.8

iTunes

7.2

1 сезон

13

6.7

1 сезон

8.3

RePack

30

Deluxe

pack

9.9

Лицензия

ВАЖНО

ИГРА 18+

pack

7.3

RePack

MK11

7.7

RePack

jed

7.8

RePack

fifa19

8.5

RePack

RDR2

RePack

NEED FOR SPEED™ PAYBACK

4 сезон

9 сезон

Бесстыжие 9 сезон

Все сериалы

все сериалы на PB.wtf

RePack

FAR CRY 5

Anonymous, добрый вечер, мы катастрофически не успеваем собрать деньги на оплату серверов, помогите нам пожалуйста 5,10,15р., для нас важна любая помощь . В качестве благодарности мы отключим Вам всю рекламу на сайте (укажите свой ник в строку Ваше имя)!

×
  
Magnet ссылка

Видимость / Drishyam (Нишикант Камат) [2015, триллер, драма, детектив, WEB-DLRip 720p] Любительский (двухголосый) [DeadSno&Den904] freetor.icu

Видимость через торрент freetor.icu

Размер: 3 GB | Добавлен: 5 лет 10 мес. назад | Торрент скачан:61 раз
Смотреть онлайн Видимость | Скачать    Ребята, помогите собрать деньги на оплату серверов!!!

24-10-2015 20:32 Видимость Скачать торрент  

Видимость / Drishyam«Visuals Can Be Deceptive»

  • Год выхода: 2015
  • Жанр: триллер, драма, детектив
  • Страна: Индия
  • Продолжительность: 02:43:33
  • Перевод: Любительский (двухголосый) [DeadSno&Den904]
  • Автор перевода: ❖ Honey&Haseena ❖
  • Cубтитры: Русские (на песни)
  • Режиссер: Нишикант Камат
  • В ролях:

    Аджай Девган (Vijay Salgaonkar), Шрия (Nandini Salgaonkar), Табу (Meera Deshmukh), Ishita Dutta, Himanshu Joshi (Shriya's brother), Раджат Капур, Prathamesh Parab (Sid Deshmukh), Камлеш Савант (Inspector Gaitonde)


  • Виджай Салгаонкар работает на сеть кабельного телевидения в отдаленной и холмистой деревне на Гоа. Он счастливо живет со своей женой Нандини и двумя дочерьми. Сирота с четырьмя классами образования, Виджай упорно работает, чтобы обеспечить свою семью. Он знает, что его путь к успеху зависит от него самого - его смекалки и трудолюбия. Человек со скромными средствами и потребностями, Виджай считает, что жить надо просто. Его жена, хотя и любит его искренне, хочет покончить с бережным и скупым поведением Виджая, и хочет мира для своей семьи.
    Если есть одна вещь, без которой Виджай не может жить, это его страсть просмотра фильмов. Его «киношная» одержимость такова, что он не считает зазорным сидеть всю ночь в своем кабинете, спуская деньги на телевизионные фильмы! В причудливом повороте событий пропадает подросток, сын упрямой и серьёзной полицейской Миры Дешмукх, а Салгаонкар становится главным подозреваемым! Будет ли в состоянии скромный человек среднего класса защитить свою семью от мощного натиска? То как семья выдерживает шторм, который наступает во время насильственного расследования, формирует остальную часть истории, ведущей к неожиданной и шокирующей развязке.

  • Качество: WEB-DLRip 720p
  • Формат: MKV
  • Видео кодек: AVC
  • Аудио кодек: AC3
  • Видео: AVC, 1288x544 (2.35:1), 2174 kbps, 24,975 fps, 0,124 bpp
  • Аудио: русский / AC3 / 5.1 / 48 kHz / 448 kbps / 16 bit
  • Релиз от: РГ Honey&Haseena в содружестве с РГ Колобок

    Код:

    General
    Unique ID                                : 251987412315336950239115968036458562659 (0xBD9302A2EF1CC4A9B69A0A63C6858463)
    Complete name                            : H:\идимость.2015.Kolobok.HoneyHaseena.mkv
    Format                                   : Matroska
    Format version                           : Version 4 / Version 2
    File size                                : 3.00 GiB
    Duration                                 : 2h 43mn
    Overall bit rate mode                    : Variable
    Overall bit rate                         : 2 623 Kbps
    Encoded date                             : UTC 2015-10-24 17:04:58
    Writing application                      : mkvmerge v8.3.0 ('Over the Horizon') 32bit
    Writing library                          : libebml v1.3.1 + libmatroska v1.4.2

    Video
    ID                                       : 1
    Format                                   : AVC
    Format/Info                              : Advanced Video Codec
    Format profile                           : High@L4.1
    Format settings, CABAC                   : Yes
    Format settings, ReFrames                : 4 frames
    Codec ID                                 : V_MPEG4/ISO/AVC
    Duration                                 : 2h 43mn
    Bit rate mode                            : Variable
    Bit rate                                 : 2 174 Kbps
    Maximum bit rate                         : 40.0 Mbps
    Width                                    : 1 288 pixels
    Height                                   : 544 pixels
    Display aspect ratio                     : 2.35:1
    Frame rate                               : 24.975 fps
    Color space                              : YUV
    Chroma subsampling                       : 4:2:0
    Bit depth                                : 8 bits
    Scan type                                : Progressive
    Bits/(Pixel*Frame)                       : 0.124
    Stream size                              : 2.43 GiB (81%)
    Title                                    : FrostSchutz DrC
    Writing library                          : x264 core 146 r2538 121396c
    Encoding settings                        : cabac=1 / ref=5 / deblock=1:0:0 / analyse=0x3:0x113 / me=umh / subme=8 / psy=1 / psy_rd=1.00:0.00 / mixed_ref=1 / me_range=16 / chroma_me=1 / trellis=1 / 8x8dct=1 / cqm=0 / deadzone=21,11 / fast_pskip=1 / chroma_qp_offset=-2 / threads=12 / lookahead_threads=2 / sliced_threads=0 / slices=4 / nr=0 / decimate=1 / interlaced=0 / bluray_compat=1 / constrained_intra=0 / bframes=3 / b_pyramid=1 / b_adapt=2 / b_bias=0 / direct=3 / weightb=1 / open_gop=1 / weightp=1 / keyint=25 / keyint_min=1 / scenecut=40 / intra_refresh=0 / rc_lookahead=25 / rc=2pass / mbtree=1 / bitrate=2174 / ratetol=1.0 / qcomp=0.60 / qpmin=0 / qpmax=69 / qpstep=4 / cplxblur=20.0 / qblur=0.5 / vbv_maxrate=40000 / vbv_bufsize=30000 / nal_hrd=vbr / filler=0 / ip_ratio=1.40 / aq=1:1.00
    Default                                  : Yes
    Forced                                   : No

    Audio
    ID                                       : 3
    Format                                   : AC-3
    Format/Info                              : Audio Coding 3
    Mode extension                           : CM (complete main)
    Codec ID                                 : A_AC3
    Duration                                 : 2h 43mn
    Bit rate mode                            : Constant
    Bit rate                                 : 448 Kbps
    Channel(s)                               : 6 channels
    Channel positions                        : Front: L C R, Side: L R, LFE
    Sampling rate                            : 48.0 KHz
    Bit depth                                : 16 bits
    Compression mode                         : Lossy
    Stream size                              : 524 MiB (17%)
    Default                                  : Yes
    Forced                                   : No

    Text
    ID                                       : 2
    Format                                   : UTF-8
    Codec ID                                 : S_TEXT/UTF8
    Codec ID/Info                            : UTF-8 Plain Text
    Default                                  : Yes
    Forced                                   : No

    Скриншоты:


    © Оформление by -Lexx- freetor.icu



  • Скачать Видимость через торрент https://pic1.kartinco.top/images/61/stazu.jpg Скачать, смотреть онлайн Видимость бесплантно в хорошем качестве qw.png Виджай Салгаонкар работает на сеть кабельного телевидения в отдаленной и холмистой деревне на Гоа. Он счастливо живет со своей ... 10 10 5
    Торрент: Зарегистрирован [2015-10-24 20:32] · скачан: 61 раз
    Статус: √ проверено
    Размер: 3 GB
    Как cкачать? Как скачать Видимость через торрент | UTorrent

    28-11-2019 20:33  

    Отключить всю рекламу на сайте

      Дорогой пользователь! Огромная просьба, поблагодарите релизера, оцените раздачу и оставьте свои комментарий, если Вы скачали Видимость через торрент бесплатно!
      Комментировать посты могут только пользователи прошедшие не сложную регистрацию
      Показать сообщения:    

      Видимость через торрент
      Скачать бесплатно Видимость
      Видимость скачать торрент
      Видимость смотреть онлайн
      Cкачать фильм Видимость бесплатно
      Видимость скачать торрент в хорошем качестве
      Видимость смотреть онлайн бесплатно в хорошем качестве


      Вы не можете начинать темы
      Вы не можете отвечать на сообщения
      Вы не можете редактировать свои сообщения
      Вы не можете удалять свои сообщения
      Вы не можете голосовать в опросах
      Вы не можете прикреплять файлы к сообщениям
      Вы можете скачивать файлы