Присоединяйтесь к нам в Telegram!, здесь всегда актуальный адрес сайта, оперативная поддержка и многое другое!!

>

5.9

iTunes

7.4

iTunes

9.4

1 сезон

1

7.4

2 сезон

7.2

iTunes

7.3

iTunes

13

6.1

iTunes

8.3

Пиратка

30

ULTIMATE

pack

9.9

Лицензия

ВАЖНО

ИГРА 18+

pack

7.3

RePack

MK11

7.7

RePack

jed

7.8

RePack

fifa19

8.5

RePack

RDR2

RePack

NEED FOR SPEED™ PAYBACK

5 сезон

9 сезон

Бесстыжие 9 сезон

Все сериалы

все сериалы на PB.wtf

RePack

FAR CRY 5

Anonymous, доброе утро, мы катастрофически не успеваем собрать деньги на оплату серверов, помогите нам пожалуйста 5,10,15р., для нас важна любая помощь . В качестве благодарности мы отключим Вам всю рекламу на сайте (укажите свой ник в строку Ваше имя)!

×
  
Magnet ссылка

Я плюю на ваши могилы 3 / I Spit on Your Grave 3 (Р.Д. Браунштейн) [2015, триллер, ужасы, криминал, HDRip] MVO [Лицензия - iTunes] freetor.icu

Я плюю на ваши могилы 3 через торрент freetor.icu

Размер: 1.44 GB | Добавлен: 6 лет 1 мес. назад | Торрент скачан:1169 раз
Смотреть онлайн Я плюю на ваши могилы 3 | Скачать    Ребята, помогите собрать деньги на оплату серверов!!!

22-10-2015 20:42 Я плюю на ваши могилы 3 Скачать торрент  

Я плюю на ваши могилы 3 / I Spit on Your Grave 3

  • Год выхода: 2015
  • Жанр: триллер, ужасы, криминал

  • Страна: США
  • Продолжительность: 01:31:31
  • Перевод: Профессиональный многоголосый [Лицензия - iTunes]
  • Режиссер: Р.Д. Браунштейн
  • В ролях:

    Сара Батлер (Jennifer Hills), Дженнифер Лэндон (Marla), Даг МакКиэн (Oscar), Гэбриел Хоган (Detective McDylan), Харли Джейн Козак (Therapist), Мишель Херд (Detective Boyle), Мэг Рейч (Cassie), Расселл Чарльз Питтс (Matthew), Карен Страссман (Lynne), Эндрю Диц (Nicholas Woods), Адам Даннеллс (Cole Watson), Кристофер Хоффман (Ron Merrick)


  • Главная героиня фильма писательница Дженнифер Хиллз начала новую жизнь. Она посещает психотерапевта, и кризисную группу для жертв изнасилований. В группе она знакомится с бойкой и яркой девушкой, которая убеждает её, что месть - это и есть правосудие. Вместе, они запугивают мужчину, который насилует свою падчерицу-подростка из их группы. А потом, подругу насилует и убивает её бывший парень. Пришло время Дженнифер встретиться со своим прошлым. Понесут ли преступники заслуженное наказание? И по какую сторону окажется сама Дженнифер?

  • Качество: HDRip
  • Формат: AVI
  • Видео кодек: XviD
  • Аудио кодек: AC3
  • Видео: XviD, 720x304 (2.35:1), 1859 kbps, 23,976 fps, 0,354 bpp
  • Аудио: русский / AC3 / 5.1 / 48 kHz / 384 kbps / 16 bit

    Код:

    General
    Complete name                            : H:\Ya.Pluyu.Na.M0gily.3.2015.D.HDRip.avi
    Format                                   : AVI
    Format/Info                              : Audio Video Interleave
    File size                                : 1.44 GiB
    Duration                                 : 1h 31mn
    Overall bit rate                         : 2 253 Kbps
    Writing application                      : VirtualDubMod 1.5.10.3 | www.virtualdub-fr.org || (build 2550/release)

    Video
    ID                                       : 0
    Format                                   : MPEG-4 Visual
    Format profile                           : Advanced [email protected]
    Format settings, BVOP                    : 2
    Format settings, QPel                    : No
    Format settings, GMC                     : No warppoints
    Format settings, Matrix                  : Default (MPEG)
    Codec ID                                 : XVID
    Codec ID/Hint                            : XviD
    Duration                                 : 1h 31mn
    Bit rate                                 : 1 860 Kbps
    Width                                    : 720 pixels
    Height                                   : 304 pixels
    Display aspect ratio                     : 2.35:1
    Frame rate                               : 23.976 fps
    Color space                              : YUV
    Chroma subsampling                       : 4:2:0
    Bit depth                                : 8 bits
    Scan type                                : Progressive
    Compression mode                         : Lossy
    Bits/(Pixel*Frame)                       : 0.354
    Stream size                              : 1.19 GiB (83%)
    Writing library                          : XviD 1.2.1 (UTC 2008-12-04)

    Audio
    ID                                       : 1
    Format                                   : AC-3
    Format/Info                              : Audio Coding 3
    Mode extension                           : CM (complete main)
    Codec ID                                 : 2000
    Duration                                 : 1h 31mn
    Bit rate mode                            : Constant
    Bit rate                                 : 384 Kbps
    Channel(s)                               : 6 channels
    Channel positions                        : Front: L C R, Side: L R, LFE
    Sampling rate                            : 48.0 KHz
    Bit depth                                : 16 bits
    Compression mode                         : Lossy
    Stream size                              : 251 MiB (17%)
    Alignment                                : Split accross interleaves
    Interleave, duration                     : 42 ms (1.00 video frame)
    Interleave, preload duration             : 500 ms

    Скриншоты:


    © Оформление by -Lexx- freetor.icu



  • Скачать Я плюю на ваши могилы 3 через торрент https://pic1.kartinco.top/images/61/stazu.jpg Скачать, смотреть онлайн Я плюю на ваши могилы 3 бесплантно в хорошем качестве qw.png Главная героиня фильма писательница Дженнифер Хиллз начала новую жизнь. Она посещает психотерапевта, и кризисную группу для жертв ... 9.1 10 40
    Торрент: Зарегистрирован [2015-10-22 20:42] · скачан: 1 169 раз
    Статус: √ проверено
    Размер: 1.44 GB
    Как cкачать? Как скачать Я плюю на ваши могилы 3 через торрент | UTorrent

    % Раздел Тема Автор DL S | L
    Фильмы 2015 [DVDrip, WEB-DLRip, HDrip] [ 2.14 GB ] Я плюю на ваши могилы 3 / I Spit on Your Grave 3 [2015 BDRip-AVC] MVO potroks Скачать
    1 | 0
    Фильмы (Blu-ray, BD-Remux, HDDVD) [ 20.24 GB ] Я плюю на ваши могилы 3 / I Spit on Your Grave 3 [2015 BDRemux] MVO кэп Скачать
    1 | 0

    28-11-2019 20:33  

    Отключить всю рекламу на сайте

    22-10-2015 20:56 Я плюю на ваши могилы 3 Скачать торрент  

    Все что тут интригует , так то что они вернули героиню с первой части, которая была очень даже неплохой в своем жанре.freetor.icu



    22-10-2015 23:52 Я плюю на ваши могилы 3 Скачать торрент  

    Какое-то бессмысленное мочилово худой бабой здоровых мужиков. Нету никакого продолжения идеи от первых двух фильмов, как будто смотришь другой (идиотский) фильм. Никому не советую смотреть, зря время потратите.
    Еще в конце показали что
    ... это просто ее фантазии.
    На первой части им надо было остановиться. 3/10....
    И да продолжение следует sarcasticfreetor.icu



    23-10-2015 16:21 Я плюю на ваши могилы 3 Скачать торрент  

    а дубляж будет вроде в кинотеатрах уже паказывалиfreetor.icu
    !Ворон писал(а):

    Нет не будет.



    23-10-2015 18:34 Я плюю на ваши могилы 3 Скачать торрент  

    Не стоит смотреть, ничего хорошего. Сколько в мире не людей и после этих фильмов их только больше станет.freetor.icu



    28-10-2015 20:44 Я плюю на ваши могилы 3 Скачать торрент  

    :jest3: Вспоминая предыдущие части - я не разочаруюсь! Все части сильные! Око за око! Не фиг трогать слабых!freetor.icu



    29-10-2015 14:47 Я плюю на ваши могилы 3 Скачать торрент  

    Гавняшкаfreetor.icu



      Дорогой пользователь! Огромная просьба, поблагодарите релизера, оцените раздачу и оставьте свои комментарий, если Вы скачали Я плюю на ваши могилы 3 через торрент бесплатно!
      Комментировать посты могут только пользователи прошедшие не сложную регистрацию
      Показать сообщения:    

      Я плюю на ваши могилы 3 через торрент
      Скачать бесплатно Я плюю на ваши могилы 3
      Я плюю на ваши могилы 3 скачать торрент
      Я плюю на ваши могилы 3 смотреть онлайн
      Cкачать фильм Я плюю на ваши могилы 3 бесплатно
      Я плюю на ваши могилы 3 скачать торрент в хорошем качестве
      Я плюю на ваши могилы 3 смотреть онлайн бесплатно в хорошем качестве


      Вы не можете начинать темы
      Вы не можете отвечать на сообщения
      Вы не можете редактировать свои сообщения
      Вы не можете удалять свои сообщения
      Вы не можете голосовать в опросах
      Вы не можете прикреплять файлы к сообщениям
      Вы можете скачивать файлы