Присоединяйтесь к нам в Telegram!, здесь всегда актуальный адрес сайта, оперативная поддержка и многое другое!!

>

5.9

iTunes

7.4

iTunes

9.4

1 сезон

1

7.4

2 сезон

7.2

iTunes

7.3

1 сезон

13

6.1

iTunes

8.3

Пиратка

30

ULTIMATE

pack

9.9

Лицензия

ВАЖНО

ИГРА 18+

pack

7.3

RePack

MK11

7.7

RePack

jed

7.8

RePack

fifa19

8.5

RePack

RDR2

RePack

NEED FOR SPEED™ PAYBACK

5 сезон

9 сезон

Бесстыжие 9 сезон

Все сериалы

все сериалы на PB.wtf

RePack

FAR CRY 5

Anonymous, доброй ночи, мы катастрофически не успеваем собрать деньги на оплату серверов, помогите нам пожалуйста 5,10,15р., для нас важна любая помощь . В качестве благодарности мы отключим Вам всю рекламу на сайте (укажите свой ник в строку Ваше имя)!

×
  
Magnet ссылка

Терминатор: Генезис / Terminator Genisys (Алан Тейлор / Alan Taylor) [2015, фантастика, боевик, триллер, BDRip-AVC от potroks] DUB Лицензия freetor.icu

Терминатор: Генезис через торрент freetor.icu

Размер: 1.46 GB | Добавлен: 6 лет 1 мес. назад | Торрент скачан:976 раз
Смотреть онлайн Терминатор: Генезис | Скачать    Ребята, помогите собрать деньги на оплату серверов!!!

15-10-2015 16:21 Терминатор: Генезис Скачать торрент  

Терминатор: Генезис / Terminator Genisys
«Судьба переписана»
Год выпуска: 2015
Страна: США / Paramount Pictures, Skydance Productions
Жанр: фантастика, боевик, триллер
Продолжительность: 02:05:42
Перевод: Дубляж [BD CEE]
Субтитры: русские (полные + форс.)
Навигация по главам: есть
Режиссер: Алан Тейлор / Alan Taylor
В ролях:

Арнольд Шварценеггер (Guardian), Джейсон Кларк (John Connor), Эмилия Кларк (Sarah Connor), Джай Кортни (Kyle Reese), Дж.К. Симмонс (O'Brien), Дайо Окенийи (Danny Dyson), Мэтт Смит (Alex), Кортни Б. Вэнс (Miles Dyson), Ли Бён Хон (Cop / T-1000), Майкл Глэдис (Lt. Matias), Сандрин Холт (Detective Cheung), Уэйн Баструп (Young O'Brien)
Описание: Когда Джон Коннор, лидер сопротивления, посылает сержанта Кайла Риза назад в 1984 год, чтобы защитить Сару Коннор и спасти будущее, неожиданный поворот событий создает разлом во времени. Сержант Риз оказывается в новой, незнакомой версии прошлого, где он встречает неожиданных союзников, в том числе Терминатора, новых опасных врагов, и новую миссию: изменить будущее...

Качество: BDRip-AVC
Формат: MKV
Видео кодек: AVC
Аудио кодек: AC3
Видео: AVC, 936x392 (2.40:1), 1279 kbps, 23,976 fps, 0,145 bit/pixel
Аудио: AC3 / 5.1 / 48 kHz / 384 kbps / 16 bit

Релиз группы:
Автор рипа: potroks

Код:

General
Unique ID                   : 212945077700537857130509225753132051884 (0xA033BAEC1D82FA84A3CB82617D52ADAC)
Complete name               : Terminator.Geneziz.2015.RUS.BDRip.x264.-HELLYWOOD.mkv
Format                      : Matroska
Format version              : Version 4 / Version 2
File size                   : 1.46 GiB
Duration                    : 2h 5mn
Overall bit rate            : 1 665 Kbps
Movie name                  : Terminator: Genisys (2015) - HELLYWOOD
Encoded date                : UTC 2010-02-22 21:41:31
Writing application         : mkvmerge v5.8.0 ('No Sleep / Pillow') built on Sep 30 2012 10:57:14
Writing library             : libebml v1.3.0 + libmatroska v1.4.0

Video
ID                          : 1
Format                      : AVC
Format/Info                 : Advanced Video Codec
Format profile              : [email protected]
Format settings, CABAC      : Yes
Format settings, ReFrames   : 12 frames
Codec ID                    : V_MPEG4/ISO/AVC
Duration                    : 2h 5mn
Bit rate                    : 1 279 Kbps
Width                       : 936 pixels
Height                      : 392 pixels
Display aspect ratio        : 2.40:1
Frame rate mode             : Constant
Frame rate                  : 23.976 fps
Color space                 : YUV
Chroma subsampling          : 4:2:0
Bit depth                   : 8 bits
Scan type                   : Progressive
Bits/(Pixel*Frame)          : 0.145
Stream size                 : 1.10 GiB (75%)
Title                       : potroks
Writing library             : x264 core 148 r2597M e86f3a1
Encoding settings           : cabac=1 / ref=12 / deblock=1:-2:-2 / analyse=0x3:0x133 / me=umh / subme=11 / psy=1 / psy_rd=1.00:0.10 / mixed_ref=1 / me_range=56 / chroma_me=1 / trellis=2 / 8x8dct=1 / cqm=0 / deadzone=21,11 / fast_pskip=0 / chroma_qp_offset=-3 / threads=9 / lookahead_threads=2 / sliced_threads=0 / nr=0 / decimate=1 / interlaced=0 / bluray_compat=0 / constrained_intra=0 / bframes=13 / b_pyramid=2 / b_adapt=2 / b_bias=0 / direct=3 / weightb=1 / open_gop=0 / weightp=2 / keyint=250 / keyint_min=23 / scenecut=40 / intra_refresh=0 / rc=2pass / mbtree=0 / bitrate=1279 / ratetol=1.0 / qcomp=0.70 / qpmin=0 / qpmax=69 / qpstep=4 / cplxblur=20.0 / qblur=0.5 / ip_ratio=1.40 / pb_ratio=1.30 / aq=1:0.80
Language                    : English
Default                     : Yes
Forced                      : No

Audio
ID                          : 2
Format                      : AC-3
Format/Info                 : Audio Coding 3
Mode extension              : CM (complete main)
Format settings, Endianness : Big
Codec ID                    : A_AC3
Duration                    : 2h 5mn
Bit rate mode               : Constant
Bit rate                    : 384 Kbps
Channel(s)                  : 6 channels
Channel positions           : Front: L C R, Side: L R, LFE
Sampling rate               : 48.0 KHz
Compression mode            : Lossy
Stream size                 : 345 MiB (23%)
Title                       : Dub | DD 5.1 @ 384 kbps - Blu-Ray CEE
Language                    : Russian
Default                     : Yes
Forced                      : No

Text #1
ID                          : 3
Format                      : UTF-8
Codec ID                    : S_TEXT/UTF8
Codec ID/Info               : UTF-8 Plain Text
Title                       : Forced
Language                    : Russian
Default                     : Yes
Forced                      : No

Text #2
ID                          : 4
Format                      : UTF-8
Codec ID                    : S_TEXT/UTF8
Codec ID/Info               : UTF-8 Plain Text
Title                       : iTunes
Language                    : Russian
Default                     : No
Forced                      : No

Menu
00:00:00.000                : :(01)00:00:00:000
00:07:40.334                : :(02)00:07:40:334
00:14:20.734                : :(03)00:14:20:734
00:20:31.563                : :(04)00:20:31:563
00:27:48.416                : :(05)00:27:48:416
00:34:54.801                : :(06)00:34:54:801
00:41:02.626                : :(07)00:41:02:626
00:46:28.786                : :(08)00:46:28:786
00:53:05.515                : :(09)00:53:05:515
01:01:00.239                : :(10)01:01:00:239
01:08:22.555                : :(11)01:08:22:555
01:14:43.812                : :(12)01:14:43:812
01:21:31.261                : :(13)01:21:31:261
01:31:01.706                : :(14)01:31:01:706
01:38:42.750                : :(15)01:38:42:750
01:45:41.084                : :(16)01:45:41:084
01:52:48.970                : :(17)01:52:48:970
01:58:00.114                : :(18)01:58:00:114

freetor.icu



Скачать Терминатор: Генезис через торрент http://s017.radikal.ru/i416/1510/9c/91a21cb1507a.png Скачать, смотреть онлайн Терминатор: Генезис бесплантно в хорошем качестве Описание: Когда Джон Коннор, лидер сопротивления, посылает сержанта Кайла Риза назад в 1984 год, чтобы защитить Сару Коннор и спасти ... 9.7 10 30
Info! Золотая раздача, скачанное не засчитывается.
Торрент: Зарегистрирован [2015-10-21 07:13] · скачан: 976 раз
Статус: √ проверено
Размер: 1.46 GB
Как cкачать? Как скачать Терминатор: Генезис через торрент | UTorrent

% Раздел Тема Автор DL S | L
Фильмы 2015 [DVDrip, WEB-DLRip, HDrip] [ 2.18 GB ] Терминатор: Генезис / Terminator: Genisys [2015 BDRip] DUB Twi7ter Скачать
1 | 0
Фильмы 2015 [DVDrip, WEB-DLRip, HDrip] [ 1.46 GB ] Терминатор: Генезис / Terminator: Genisys [2015 BDRip] DUB Twi7ter Скачать
1 | 0
Фильмы 2015 [DVDrip, WEB-DLRip, HDrip] [ 2.18 GB ] Терминатор: Генезис / Terminator Genisys [2015 BDRip-AVC от sokol_ok] DUB sokol_ok Скачать
3 | 0
Фильмы [HD 720p, 1080p] (Хороший звук DUB, MVO) [ 4.37 GB ] Терминатор: Генезис / Terminator Genisys [2015 BDRip 720p] DUB potroks Скачать
1 | 0
Фильмы 2015 [DVDrip, WEB-DLRip, HDrip] [ 1.45 GB ] Терминатор: Генезис / Terminator Genisys [2015 BDRip-AVC от sokol_ok] DUB sokol_ok Скачать
2 | 0
Фильмы 2015 [DVDrip, WEB-DLRip, HDrip] [ 2.91 GB ] Терминатор: Генезис / Terminator Genisys [2015 BDRip-AVC] DUB potroks Скачать
1 | 0

28-11-2019 20:33  

Отключить всю рекламу на сайте

24-11-2015 07:37 Терминатор: Генезис Скачать торрент  

Лажа полная,непонял про-что!!!freetor.icu



    Дорогой пользователь! Огромная просьба, поблагодарите релизера, оцените раздачу и оставьте свои комментарий, если Вы скачали Терминатор: Генезис через торрент бесплатно!
    Комментировать посты могут только пользователи прошедшие не сложную регистрацию
    Показать сообщения:    

    Терминатор: Генезис через торрент
    Скачать бесплатно Терминатор: Генезис
    Терминатор: Генезис скачать торрент
    Терминатор: Генезис смотреть онлайн
    Cкачать фильм Терминатор: Генезис бесплатно
    Терминатор: Генезис скачать торрент в хорошем качестве
    Терминатор: Генезис смотреть онлайн бесплатно в хорошем качестве


    Вы не можете начинать темы
    Вы не можете отвечать на сообщения
    Вы не можете редактировать свои сообщения
    Вы не можете удалять свои сообщения
    Вы не можете голосовать в опросах
    Вы не можете прикреплять файлы к сообщениям
    Вы можете скачивать файлы