Присоединяйтесь к нам в Telegram!, здесь всегда актуальный адрес сайта, оперативная поддержка и многое другое!!

>

5.9

iTunes

7.4

iTunes

9.4

1 сезон

1

7.4

2 сезон

7.2

iTunes

7.3

1 сезон

13

6.1

iTunes

8.3

GOG

30

ULTIMATE

pack

9.9

Лицензия

ВАЖНО

ИГРА 18+

pack

7.3

RePack

MK11

7.7

RePack

jed

7.8

RePack

fifa19

8.5

RePack

RDR2

RePack

NEED FOR SPEED™ PAYBACK

5 сезон

9 сезон

Бесстыжие 9 сезон

Все сериалы

все сериалы на PB.wtf

RePack

FAR CRY 5

Anonymous, добрый день, мы катастрофически не успеваем собрать деньги на оплату серверов, помогите нам пожалуйста 5,10,15р., для нас важна любая помощь . В качестве благодарности мы отключим Вам всю рекламу на сайте (укажите свой ник в строку Ваше имя)!

×
  
Magnet ссылка

Красотки в бегах / Hot Pursuit (Энн Флетчер / Anne Fletcher) [2015, боевик, комедия, криминал, BDRip-AVC от potroks] DUB Лицензия freetor.icu

Красотки в бегах через торрент freetor.icu

Размер: 1.46 GB | Добавлен: 6 лет 1 мес. назад | Торрент скачан:86 раз
Смотреть онлайн Красотки в бегах | Скачать    Ребята, помогите собрать деньги на оплату серверов!!!

10-09-2015 15:49 Красотки в бегах Скачать торрент  

Красотки в бегах / Hot Pursuit
«Вооружены и типа опасны»
Год выпуска: 2015
Страна: США / Warner Bros. Pictures, New Line Cinema, Metro-Goldwyn-Mayer (MGM)
Жанр: боевик, комедия, криминал
Продолжительность: 01:27:31
Перевод: Дубляж - [BD CEE]
Субтитры: русские (Forced), русские (Blu-Ray)
Навигация по главам: есть
Режиссер: Энн Флетчер / Anne Fletcher
В ролях:

Риз Уизерспун (Cooper), София Вергара (Daniella Riva), Мэттью Дель Негро (Detective Hauser), Майкл Мосли (Detective Dixon), Роберт Казински (Randy), Ричард Т. Джонс (Detective Jackson), Бенни Нивз (Jesus), Майкл Рэй Эскамиллья (Angel), Хоакин Косио (Vicente Cortez), Джон Кэрролл Линч (Captain Emmett), Джим Гэффиган (Red), Майк Бирбиглия (Steve)
Описание: Сверхдобросовестный офицер полиции Купер гордится своим назначением на, казалось бы, простое задание - сопроводить жену мафиози, Даниэллу, через весь Техас в Даллас, где она и ее муж должны дать показания против крупного наркобарона. Однако при встрече с порывистой миссис Рива - колумбийской красоткой с пышными формами, чье упрямство столь же выразительно, как и ее акцент, - ей становится ясно, что поездка будет не простой.
И прежде чем они успевают договориться о том, сколько туфель на шпильках сможет взять с собой очаровашка Даниэлла, полицейские и мистер Рива попадают под обстрел, превращая жену последнего во вдову, а предполагаемую «легкую прогулку» из Сан-Антонио в Даллас - в прятки на выживание наперегонки с пулями!

Качество: BDRip-AVC
Формат: MKV
Видео кодек: AVC
Аудио кодек: AC3
Видео: AVC, 1008x420 (2.40:1), 1942 kbps, 23,976 fps, 0,191 bit/pixel
Аудио: AC3 / 5.1 / 48 kHz / 448 kbps / 16 bit
Релиз группы:
Автор рипа: potroks

Код:

General
Unique ID                                : 211602266876691109837240750705422826057 (0x9F311D3CB8FE9725AA19030DBB3AFA49)
Complete name                            : N:\Боевик\Krasotki.v.Begah.2015.RUS.BDRip.x264.-HELLYWOOD.mkv
Format                                   : Matroska
Format version                           : Version 4 / Version 2
File size                                : 1.46 GiB
Duration                                 : 1h 27mn
Overall bit rate                         : 2 392 Kbps
Movie name                               : Hot Pursuit (2015) - HELLYWOOD
Encoded date                             : UTC 2015-09-10 15:19:16
Writing application                      : mkvmerge v5.9.0 ('On The Loose') built on Dec 15 2012 16:39:58
Writing library                          : libebml v1.3.0 + libmatroska v1.4.0

Video
ID                                       : 1
Format                                   : AVC
Format/Info                              : Advanced Video Codec
Format profile                           : [email protected]
Format settings, CABAC                   : Yes
Format settings, ReFrames                : 5 frames
Codec ID                                 : V_MPEG4/ISO/AVC
Duration                                 : 1h 27mn
Bit rate                                 : 1 942 Kbps
Width                                    : 1 008 pixels
Height                                   : 420 pixels
Display aspect ratio                     : 2.40:1
Frame rate                               : 23.976 fps
Color space                              : YUV
Chroma subsampling                       : 4:2:0
Bit depth                                : 8 bits
Scan type                                : Progressive
Bits/(Pixel*Frame)                       : 0.191
Stream size                              : 1.16 GiB (79%)
Title                                    : potroks
Writing library                          : x264 core 148 r2597M e86f3a1
Encoding settings                        : cabac=1 / ref=6 / deblock=1:-2:-2 / analyse=0x3:0x133 / me=umh / subme=11 / psy=1 / psy_rd=1.00:0.10 / mixed_ref=1 / me_range=48 / chroma_me=1 / trellis=2 / 8x8dct=1 / cqm=0 / deadzone=21,11 / fast_pskip=0 / chroma_qp_offset=-3 / threads=10 / lookahead_threads=1 / sliced_threads=0 / nr=0 / decimate=1 / interlaced=0 / bluray_compat=1 / constrained_intra=0 / bframes=3 / b_pyramid=1 / b_adapt=2 / b_bias=0 / direct=3 / weightb=1 / open_gop=0 / weightp=1 / keyint=250 / keyint_min=1 / scenecut=40 / intra_refresh=0 / rc=2pass / mbtree=0 / bitrate=1942 / ratetol=1.0 / qcomp=0.70 / qpmin=0 / qpmax=69 / qpstep=4 / cplxblur=20.0 / qblur=0.5 / ip_ratio=1.40 / pb_ratio=1.30 / aq=1:0.80
Language                                 : English
Default                                  : Yes
Forced                                   : No

Audio
ID                                       : 2
Format                                   : AC-3
Format/Info                              : Audio Coding 3
Mode extension                           : CM (complete main)
Codec ID                                 : A_AC3
Duration                                 : 1h 27mn
Bit rate mode                            : Constant
Bit rate                                 : 448 Kbps
Channel(s)                               : 6 channels
Channel positions                        : Front: L C R, Side: L R, LFE
Sampling rate                            : 48.0 KHz
Bit depth                                : 16 bits
Compression mode                         : Lossy
Stream size                              : 280 MiB (19%)
Title                                    : Dub | DD 5.1 @ 448 kbps - Blu-Ray CEE
Language                                 : Russian
Default                                  : Yes
Forced                                   : No

Text #1
ID                                       : 3
Format                                   : UTF-8
Codec ID                                 : S_TEXT/UTF8
Codec ID/Info                            : UTF-8 Plain Text
Title                                    : Forced
Language                                 : Russian
Default                                  : Yes
Forced                                   : No

Text #2
ID                                       : 4
Format                                   : UTF-8
Codec ID                                 : S_TEXT/UTF8
Codec ID/Info                            : UTF-8 Plain Text
Title                                    : Blu-Ray
Language                                 : Russian
Default                                  : No
Forced                                   : No

Menu
00:00:00.000                             : en:(01)00:00:00:000
00:10:39.346                             : en:(02)00:10:39:346
00:19:56.778                             : en:(03)00:19:56:778
00:29:43.698                             : en:(04)00:29:43:698
00:40:24.672                             : en:(05)00:40:24:672
00:50:18.556                             : en:(06)00:50:18:556
00:59:32.235                             : en:(07)00:59:32:235
01:10:17.712                             : en:(08)01:10:17:712
01:22:43.917                             : en:(09)01:22:43:917

freetor.icu



Скачать Красотки в бегах через торрент http://i68.fastpic.ru/big/2015/0910/cd/0dd5a549b3dc63ac7976a888c8916ccd.png Скачать, смотреть онлайн Красотки в бегах бесплантно в хорошем качестве Описание: Сверхдобросовестный офицер полиции Купер гордится своим назначением на, казалось бы, простое задание - сопроводить жену мафиози, ... 8.8 10 4
Торрент: Зарегистрирован [2015-10-18 16:17] · скачан: 86 раз
Статус: √ проверено
Размер: 1.46 GB
Как cкачать? Как скачать Красотки в бегах через торрент | UTorrent

% Раздел Тема Автор DL S | L
Ultra HD (UHD: 2K, 4K, 8K) — видео сверхвысокой чёткости [ 17.73 GB ] Красотки в бегах / Hot Pursuit [2015 UHD WEB-DL 2160p] DUB [] bober100 Скачать
1 | 0
Фильмы [HD 720p, 1080p] (Хороший звук DUB, MVO) [ 8.18 GB ] Красотки в бегах / Hot Pursuit [2015 BDRip 1080p] DUB - / Newton5 Скачать
1 | 0
Фильмы 2015 [DVDrip, WEB-DLRip, HDrip] [ 1.46 GB ] Красотки в бегах / Hot Pursuit [2015 BDRip] DUB Twi7ter Скачать
1 | 0
Фильмы 2015 [DVDrip, WEB-DLRip, HDrip] [ 2.18 GB ] Красотки в бегах / Hot Pursuit [2015 BDRip-AVC] DUB potroks Скачать
2 | 0
Фильмы (Blu-ray, BD-Remux, HDDVD) [ 16.59 GB ] Красотки в бегах / Hot Pursuit [2015 BD Remux] DUB Ворон Скачать
1 | 0
Фильмы 2015 [DVDrip, WEB-DLRip, HDrip] [ 1.55 GB ] Красотки в бегах / Hot Pursuit [2015 BDRip-AVC] DUB - / Newton5 Скачать
1 | 0

28-11-2019 20:33  

Отключить всю рекламу на сайте

    Дорогой пользователь! Огромная просьба, поблагодарите релизера, оцените раздачу и оставьте свои комментарий, если Вы скачали Красотки в бегах через торрент бесплатно!
    Комментировать посты могут только пользователи прошедшие не сложную регистрацию
    Показать сообщения:    

    Красотки в бегах через торрент
    Скачать бесплатно Красотки в бегах
    Красотки в бегах скачать торрент
    Красотки в бегах смотреть онлайн
    Cкачать фильм Красотки в бегах бесплатно
    Красотки в бегах скачать торрент в хорошем качестве
    Красотки в бегах смотреть онлайн бесплатно в хорошем качестве


    Вы не можете начинать темы
    Вы не можете отвечать на сообщения
    Вы не можете редактировать свои сообщения
    Вы не можете удалять свои сообщения
    Вы не можете голосовать в опросах
    Вы не можете прикреплять файлы к сообщениям
    Вы можете скачивать файлы