Присоединяйтесь к нам в Telegram!, здесь всегда актуальный адрес сайта, оперативная поддержка и многое другое!!

>

5.9

iTunes

7.4

iTunes

9.4

1 сезон

1

7.4

2 сезон

7.2

iTunes

7.3

1 сезон

13

6.1

iTunes

8.3

GOG

30

ULTIMATE

pack

9.9

Лицензия

ВАЖНО

ИГРА 18+

pack

7.3

RePack

MK11

7.7

RePack

jed

7.8

RePack

fifa19

8.5

RePack

RDR2

RePack

NEED FOR SPEED™ PAYBACK

5 сезон

9 сезон

Бесстыжие 9 сезон

Все сериалы

все сериалы на PB.wtf

RePack

FAR CRY 5

Anonymous, доброй ночи, мы катастрофически не успеваем собрать деньги на оплату серверов, помогите нам пожалуйста 5,10,15р., для нас важна любая помощь . В качестве благодарности мы отключим Вам всю рекламу на сайте (укажите свой ник в строку Ваше имя)!

×
  
Magnet ссылка

Макс / Max (Боаз Якин) [2015 г., Приключения, семейный, HDRip by Dean24] (Профессиональный многоголосый) freetor.icu

Макс через торрент freetor.icu

Размер: 1.76 GB | Добавлен: 6 лет 1 мес. назад | Торрент скачан:231 раз
Смотреть онлайн Макс | Скачать    Ребята, помогите собрать деньги на оплату серверов!!!

17-10-2015 07:40 Макс Скачать торрент  

Макс / Max
Год выпуска: 2015
Страна: США
Жанр: Приключения, семейный
Продолжительность: 01:50:57
Перевод: Профессиональный | многоголосый
Субтитры: Нет

Режиссер: Боаз Якин
Продюссер: Кен Бланкато, Карен Розенфельт, Бен Орманд
Сценарий: Боаз Якин, Шелдон Леттич

Бюджет: $20 000 000
Премьера в мире: 25 июня 2015



В ролях: Томас Хейден Чёрч, Джош Уиггинс, Люк Клеинтенк, Лорен Грэм, Робби Амелл, Джей Эрнандес Оуэн, Харн Джозеф, Джулиан Сория

Описание: История о собаке по кличке Макс. За годы, проведенные в Афганистане, он спас десятки солдат. Но однажды случилось так, что Макс сам попал под пулю. Сумев выжить, пес уже не мог продолжать свою службу, потому его отдали в семью одного из тех солдат, что он также когда-то спас. Каждому военному нелегко вернуться к обычной жизни, Макс тоже не стал исключением, хотя и вряд ли помнил, каково это. Теперь жизнь пса абсолютно изменилась, как и он сам. Сможет ли герой привыкнуть к быту без войны?

Качество: HDRip | BDRip 720p
Формат: AVI
Видео кодек: XviD
Аудио кодек: AC3
Видео: 720x304 (2.37:1), 23.976 fps, XviD build 50 ~1879 kbps avg, 0.36 bit/pixel
Аудио: 48 kHz, AC3 Dolby Digital, 3/2 (L,C,R,l,r) + LFE ch, ~384 kbps



Автор рипа: Dean24
|
Общее
Полное имя : D:\Мои документы\Фильмы\Сайт\Max.HDRip.avi
Формат : AVI
Формат/Информация : Audio Video Interleave
Размер файла : 1,76 Гбайт
Продолжительность : 1 ч. 50 м.
Общий поток : 2273 Кбит/сек
Программа кодирования : VirtualDubMod 1.5.10.3 | www.virtualdub-fr.org || (build 2550/release)
Библиотека кодирования : VirtualDubMod build 2550/release

Видео
Идентификатор : 0
Формат : MPEG-4 Visual
Профиль формата : Advanced [email protected]
Параметр BVOP формата : 3
Параметр QPel формата : Нет
Параметр GMC формата : Без точки перехода
Параметр матрицы формата : Default (H.263)
Идентификатор кодека : XVID
Идентификатор кодека/Подсказка : XviD
Продолжительность : 1 ч. 50 м.
Битрейт : 1880 Кбит/сек
Ширина : 720 пикселей
Высота : 304 пикселя
Соотношение сторон : 2,35:1
Частота кадров : 23,976 кадра/сек
Цветовое пространство : YUV
Субдискретизация насыщенности : 4:2:0
Битовая глубина : 8 бит
Тип развёртки : Прогрессивная
Метод сжатия : С потерями
Бит/(Пиксели*Кадры) : 0.358
Размер потока : 1,46 Гбайт (83%)
Библиотека кодирования : XviD 1.2.1 (UTC 2008-12-04)

Аудио
Идентификатор : 1
Формат : AC-3
Формат/Информация : Audio Coding 3
Расширение режима : CM (complete main)
Параметр Endianness формата : Big
Идентификатор кодека : 2000
Продолжительность : 1 ч. 50 м.
Вид битрейта : Постоянный
Битрейт : 384 Кбит/сек
Каналы : 6 каналов
Расположение каналов : Front: L C R, Side: L R, LFE
Частота : 48,0 КГц
Битовая глубина : 16 бит
Метод сжатия : С потерями
Размер потока : 305 Мбайт (17%)
Выравнивание : Разделение по промежуткам
Продолжительность промежутка : 42 мс. (1,00 видеокадр)
Время предзагрузки промежутка : 500 мс.

freetor.icu



Скачать Макс через торрент http://i65.fastpic.ru/big/2015/1017/6d/7564a16846631ceb400840610a66c16d.png Скачать, смотреть онлайн Макс бесплантно в хорошем качестве Описание: История о собаке по кличке Макс. За годы, проведенные в Афганистане, он спас десятки солдат. Но однажды случилось так, что Макс ... 8.8 10 16
Info! Золотая раздача, скачанное не засчитывается.
Торрент: Зарегистрирован [2015-10-17 07:40] · скачан: 231 раз
Статус: √ проверено
Размер: 1.76 GB
Как cкачать? Как скачать Макс через торрент | UTorrent

% Раздел Тема Автор DL S | L
Фильмы 2009 [ 736 MB ] Макс Пэйн / Max Payne [2009 DVDRip] [Альтернативная версия] killermax2013 Скачать
1 | 0
Зарубежные сериалы [ 6.93 GB ] Оставленные / Остатки / The Leftovers / Сезон: 1 / Серии 1-10 из 10 [ 2014 HDTVRip ] DVO GEKADOL Скачать
1 | 0
Сборники и Сиквелы (48-60 fps) [ 32.72 GB ] Безумный Макс: Трилогия / Mad Max: Trilogy [1979-1985 Австралия BDRip 1080p / 60 FPS] Tiberiumsun69 Скачать
1 | 0
Нетрадиционное порно [ 12.95 GB ] Макс Фактор 11-20 / Max Faktor 11-20 [2001-2007 г Extreme Anal Gagging Fisting Oral Teen SchoolGirl Enema Peeing Pissing Toys Facial DVDRip] лисяра Скачать
1 | 0
Фильмы с авторской озвучкой [ 2.18 GB ] Безумный Макс: Дорога ярости / Mad Max: Fury Road [2015 BDRip] [AVO] killermax2013 Скачать
1 | 0
Фильмы (DVD фильмы) [ 5.75 GB ] Безумный Макс: Дорога ярости / Mad Max: Fury Road [2015 DVD9 Custom] Ворон Скачать
1 | 0
Сборники и Сиквелы (48-60 fps) [ 20.43 GB ] Безумный Макс: Трилогия / Mad Max: Trilogy [1979-1985 Австралия BDRip 720p / 60 FPS] Tiberiumsun69 Скачать
1 | 0

28-11-2019 20:33  

Отключить всю рекламу на сайте

17-10-2015 12:11 Макс Скачать торрент  

Описание фильму не соответствует, собака искала тайники с оружием, ни одного солдата не спасла, в семью его отдали погибшему проводнику, который дрессировал эту собаку... А собака страдала из-за гибели "хозяина". sarcasticfreetor.icu



17-10-2015 12:29 Макс Скачать торрент  

den2244 писал(а):

Описание фильму не соответствует, собака искала тайники с оружием, ни одного солдата не спасла, в семью его отдали погибшему проводнику, который дрессировал эту собаку... А собака страдала из-за гибели "хозяина". sarcastic

ты правfreetor.icu



17-10-2015 15:44 Макс Скачать торрент  

такое ощущение что посмотрел фильм 90-х (шлачина)freetor.icu



18-10-2015 15:20 Макс Скачать торрент  

Коротко о фильме --- красивая собачка! Всё остальное !!!freetor.icu



25-10-2015 19:16 Макс Скачать торрент  

stethemjurok писал(а):

такое ощущение что посмотрел фильм 90-х (шлачина)

NBAH писал(а):

Коротко о фильме --- красивая собачка! Всё остальное !!!

Смотрим - Жанр: Приключения, семейный.
Ни на что другое и нечего расчитывать, а с семьей-ребенком самое оно. Удивили несколько предложений про смысл войны в Афгане в исполнении звездно-полосатых.freetor.icu



    Дорогой пользователь! Огромная просьба, поблагодарите релизера, оцените раздачу и оставьте свои комментарий, если Вы скачали Макс через торрент бесплатно!
    Комментировать посты могут только пользователи прошедшие не сложную регистрацию
    Показать сообщения:    

    Макс через торрент
    Скачать бесплатно Макс
    Макс скачать торрент
    Макс смотреть онлайн
    Cкачать фильм Макс бесплатно
    Макс скачать торрент в хорошем качестве
    Макс смотреть онлайн бесплатно в хорошем качестве


    Вы не можете начинать темы
    Вы не можете отвечать на сообщения
    Вы не можете редактировать свои сообщения
    Вы не можете удалять свои сообщения
    Вы не можете голосовать в опросах
    Вы не можете прикреплять файлы к сообщениям
    Вы можете скачивать файлы