Присоединяйтесь к нам в Telegram!, здесь всегда актуальный адрес сайта, оперативная поддержка и многое другое!!

>

5.9

iTunes

7.4

iTunes

9.4

1 сезон

1

7.4

2 сезон

7.2

iTunes

7.3

1 сезон

13

6.1

iTunes

8.3

GOG

30

ULTIMATE

pack

9.9

Лицензия

ВАЖНО

ИГРА 18+

pack

7.3

RePack

MK11

7.7

RePack

jed

7.8

RePack

fifa19

8.5

RePack

RDR2

RePack

NEED FOR SPEED™ PAYBACK

5 сезон

9 сезон

Бесстыжие 9 сезон

Все сериалы

все сериалы на PB.wtf

RePack

FAR CRY 5

Anonymous, доброй ночи, мы катастрофически не успеваем собрать деньги на оплату серверов, помогите нам пожалуйста 5,10,15р., для нас важна любая помощь . В качестве благодарности мы отключим Вам всю рекламу на сайте (укажите свой ник в строку Ваше имя)!

×
  
Magnet ссылка

Поклонник / The Boy Next Door (Роб Коэн) [2015 г., триллер, HDRip, Дубляж " Лицензия"] freetor.icu

Поклонник через торрент freetor.icu

Размер: 1.46 GB | Добавлен: 6 лет 1 мес. назад | Торрент скачан:329 раз
Смотреть онлайн Поклонник | Скачать    Ребята, помогите собрать деньги на оплату серверов!!!

24-05-2015 07:38 Поклонник Скачать торрент  

Поклонник / The Boy Next Door
Год выпуска: 2015
Страна: США / Smart Entertainment, Blumhouse Productions, Nuyorican Productions
Жанр: триллер
Продолжительность: 01:30:33
Перевод: Дубляж (Лицензия)

Режиссер: Роб Коэн

IMDB 4.50 (12 900)


В ролях: Дженнифер Лопез, Райан Гузман, Йен Нельсон, Джон Корбетт, Кристин Ченоуэт, Лекси Аткинс, Хилл Харпер, Джек Уоллес, Адам Хикс, Франсуа Чау

Описание: Фильм рассказывает об учительнице литературы Клэр Петерсон. Клэр знает о том, что муж изменяет ей, но тянет с разводом.Однажды, в дом по соседству въезжает харизматичный 19-летний красавчик Ной, который начинает оказывать Клэр повышенное внимание. Поддавшись слабости, Клэр проводит с ним ночь. Но она и не подозревала, что в скором времени влечение Ноя к ней перерастет в опасную одержимость...

Качество: HDRip
Формат: AVI
Видео кодек: DivX 4
Аудио кодек: AC3
Видео: 720x304 (2.37:1), 23.976 fps, DivX Codec 4.x ~1846 kbps avg, 0.35 bit/pixel
Аудио: 48 kHz, AC3 Dolby Digital, 3/2 (L,C,R,l,r) + LFE ch, ~448 kbps

скриншот   скриншот   скриншот   скриншот   скриншот   скриншот  

Общее
Полное имя : F:\кино\Поклонник.2015.HDRip.avi
Формат : AVI
Формат/Информация : Audio Video Interleave
Размер файла : 1,46 Гбайт
Продолжительность : 1 ч. 30 м.
Общий поток : 2304 Кбит/сек
Программа кодирования : VirtualDubMod 1.5.10.3 | www.virtualdub-fr.org || (build 2550/release)
Библиотека кодирования : VirtualDubMod build 2550/release

Видео
Идентификатор : 0
Формат : MPEG-4 Visual
Профиль формата : Advanced [email protected]
Параметр BVOP формата : 2
Параметр QPel формата : Нет
Параметр GMC формата : Без точки перехода
Параметр матрицы формата : Default (H.263)
Идентификатор кодека : DIVX
Идентификатор кодека/Информация : Project Mayo
Идентификатор кодека/Подсказка : DivX 4
Продолжительность : 1 ч. 30 м.
Битрейт : 1846 Кбит/сек
Ширина : 720 пикселей
Высота : 304 пикселя
Соотношение сторон : 2,35:1
Частота кадров : 23,976 кадра/сек
Цветовое пространство : YUV
Субдискретизация насыщенности : 4:2:0
Битовая глубина : 8 бит
Тип развёртки : Прогрессивная
Метод сжатия : С потерями
Бит/(Пиксели*Кадры) : 0.352
Размер потока : 1,17 Гбайт (80%)
Библиотека кодирования : XviD 1.2.1 (UTC 2008-12-04)

Аудио
Идентификатор : 1
Формат : AC-3
Формат/Информация : Audio Coding 3
Расширение режима : CM (complete main)
Параметр Endianness формата : Big
Идентификатор кодека : 2000
Продолжительность : 1 ч. 30 м.
Вид битрейта : Постоянный
Битрейт : 448 Кбит/сек
Каналы : 6 каналов
Расположение каналов : Front: L C R, Side: L R, LFE
Частота : 48,0 КГц
Битовая глубина : 16 бит
Метод сжатия : С потерями
Размер потока : 290 Мбайт (19%)
Выравнивание : Разделение по промежуткам
Продолжительность промежутка : 42 мс. (1,00 видеокадр)
Время предзагрузки промежутка : 500 мс.

freetor.icu



Скачать Поклонник через торрент https://pic1.kartinco.top/images/10/4yb8z.jpg Скачать, смотреть онлайн Поклонник бесплантно в хорошем качестве Описание: Фильм рассказывает об учительнице литературы Клэр Петерсон. Клэр знает о том, что муж изменяет ей, но тянет с разводом.Однажды, в ... 9.3 10 51
Торрент: Зарегистрирован [2015-10-15 14:15] · скачан: 329 раз
Статус: √ проверено
Размер: 1.46 GB
Как cкачать? Как скачать Поклонник через торрент | UTorrent

% Раздел Тема Автор DL S | L
Фильмы 2015 [DVDrip, WEB-DLRip, HDrip] [ 2.18 GB ] Поклонник / The Boy Next Door [2015 BDRip-AVC] DUB potroks Скачать
1 | 0
Трейлеры и дополнительные материалы к фильмам [ 729 MB ] Поклонник / The Boy Next Door [2015 DCPRip 2k] [Hi10P Hi444PP] Трейлер от R.G. PiratFilms Messa-fan Скачать
1 | 0

28-11-2019 20:33  

Отключить всю рекламу на сайте

24-05-2015 18:58 Поклонник Скачать торрент  

Маньячило-бабколюб навязывается в любовники вполне нормально выглядящей для своего реального возраста тетке и показательно тролящий при этом остальных членов её семьи. Фильм на любителя, либо для больших фэнов ДжейЛО.freetor.icu



24-05-2015 21:36 Поклонник Скачать торрент  

zloy007 писал(а):

Маньячило-бабколюб навязывается в любовники вполне нормально выглядящей для своего реального возраста тетке и показательно тролящий при этом остальных членов её семьи. Фильм на любителя, либо для больших фэнов ДжейЛО.

Красноречивая альтернатива официальному Описанию...freetor.icu



25-05-2015 08:08 Поклонник Скачать торрент  

Фильм клевый 10 из 10freetor.icu



09-06-2015 12:31 Поклонник Скачать торрент  

zloy007 писал(а):

Маньячило-бабколюб навязывается в любовники вполне нормально выглядящей для своего реального возраста тетке и показательно тролящий при этом остальных членов её семьи. Фильм на любителя, либо для больших фэнов ДжейЛО.

шикарно описалfreetor.icu



13-10-2015 10:41 Поклонник Скачать торрент  

igorich42 писал(а):

zloy007 писал(а):

Маньячило-бабколюб навязывается в любовники вполне нормально выглядящей для своего реального возраста тетке и показательно тролящий при этом остальных членов её семьи. Фильм на любителя, либо для больших фэнов ДжейЛО.

шикарно описал

Хехе freetor.icu



13-10-2015 11:44 Поклонник Скачать торрент  

Больше бы откровенных сцен и можно в раздел с MILF переносить. А танцору Шону свезло потыкать в шоколадку freetor.icu



13-10-2015 22:59 Поклонник Скачать торрент  

фильмец старый уже на один раzокfreetor.icu



14-10-2015 13:46 Поклонник Скачать торрент  

еще и 10 из 10 кто-то ставит, максимум пять баллов, киношка на разок, ито с натягомfreetor.icu



14-10-2015 14:01 Поклонник Скачать торрент  

Нормальный фильмfreetor.icu



13-11-2015 21:09 Поклонник Скачать торрент  

lumeness писал(а):

еще и 10 из 10 кто-то ставит, максимум пять баллов, киношка на разок, ито с натягом

можно сэкономить время и посмотреть ее клип Буди, там тема силиконовых поп хоть раскрыта, в отличии от сабжа(перепихон то показать-зажали...упс..) :pleasantry: спойлер)freetor.icu



    Дорогой пользователь! Огромная просьба, поблагодарите релизера, оцените раздачу и оставьте свои комментарий, если Вы скачали Поклонник через торрент бесплатно!
    Комментировать посты могут только пользователи прошедшие не сложную регистрацию
    Показать сообщения:    

    Поклонник через торрент
    Скачать бесплатно Поклонник
    Поклонник скачать торрент
    Поклонник смотреть онлайн
    Cкачать фильм Поклонник бесплатно
    Поклонник скачать торрент в хорошем качестве
    Поклонник смотреть онлайн бесплатно в хорошем качестве


    Вы не можете начинать темы
    Вы не можете отвечать на сообщения
    Вы не можете редактировать свои сообщения
    Вы не можете удалять свои сообщения
    Вы не можете голосовать в опросах
    Вы не можете прикреплять файлы к сообщениям
    Вы можете скачивать файлы