Присоединяйтесь к нам в Telegram!, здесь всегда актуальный адрес сайта, оперативная поддержка и многое другое!!

>

5.9

iTunes

7.4

iTunes

9.4

1 сезон

1

7.4

2 сезон

7.2

iTunes

7.3

iTunes

13

6.1

iTunes

8.3

Пиратка

30

ULTIMATE

pack

9.9

Лицензия

ВАЖНО

ИГРА 18+

pack

7.3

RePack

MK11

7.7

RePack

jed

7.8

RePack

fifa19

8.5

RePack

RDR2

RePack

NEED FOR SPEED™ PAYBACK

5 сезон

9 сезон

Бесстыжие 9 сезон

Все сериалы

все сериалы на PB.wtf

RePack

FAR CRY 5

Anonymous, доброе утро, мы катастрофически не успеваем собрать деньги на оплату серверов, помогите нам пожалуйста 5,10,15р., для нас важна любая помощь . В качестве благодарности мы отключим Вам всю рекламу на сайте (укажите свой ник в строку Ваше имя)!

×
  
Magnet ссылка

Третий лишний 2 (Сет МакФарлейн) [2015, комедия, WEB-DLRip, Дубляж] iTunes freetor.icu

Третий лишний 2 через торрент freetor.icu

Размер: 2.05 GB | Добавлен: 6 лет 1 мес. назад | Торрент скачан:38 раз
Смотреть онлайн Третий лишний 2 | Скачать    Ребята, помогите собрать деньги на оплату серверов!!!

23-09-2015 19:47 Третий лишний 2 Скачать торрент  


Третий лишний 2 / Ted 2
««Плюшевый беспредельщик возвращается»»

ИНФОРМАЦИЯ:
Год выпуска:2015
Страна: США
Жанр: комедия
Продолжительность: 01:52:43
Перевод: Дубляж - [Лицензия / iTunes]
Режиссер: Сет МакФарлейн

В Ролях:


Марк Уолберг (John), Сет МакФарлейн (Ted, озвучка), Аманда Сайфред (Samantha), Джованни Рибизи (Donny), Джон Слэттери (Shep Wild), Морган Фриман (Patrick Meighan), Джессика Барт (Tami-Lynn), Сэм Дж. Джонс (Sam Jones), Патрик Варбертон (Guy), Майкл Дорн (Rick), Билл Смитрович (Frank), Коко Браун (Joy)

Описание:
Плюшевый беспредельщик продолжает сводить с ума чопорную интеллигенцию. На этот раз говорящий медвежонок с большим эго и его длинноногая блондинка решили завести ребёнка. Там, где не постаралась природа, на помощь приходят звёздные доноры, городские сумасшедшие и верный друг Джонни. Он только что расстался с Лори и готов к новым авантюрам. Третий здесь совсем не лишний.

  • Мировая премьера:25 июня 2015

    ТЕХ.ДАННЫЕ:
    Качество: WEB-DLRip
    Формат: AVI
    Видео: XviD, 720x304 (2.35:1), 1853 kbps, 23,976 fps, 0,353 bpp
    Аудио №1: AC3 / 5.1 / 48 kHz / 384 kbps / RUS
    Аудио №2: AC3 / 2.0 / 48 kHz / 256 kbps / ENG


    General
    Complete name : D:\Торенты\TED.2.2015.D.WEB-DLRip.2100MB.avi
    Format : AVI
    Format/Info : Audio Video Interleave
    File size : 2.05 GiB
    Duration : 1h 52mn
    Overall bit rate : 2 607 Kbps
    Writing application : VirtualDubMod 1.5.10.3 | www.virtualdub-fr.org || (build 2550/release)
    Writing library : VirtualDubMod build 2550/release

    Video
    ID : 0
    Format : MPEG-4 Visual
    Format profile : Advanced [email protected]
    Format settings, BVOP : 2
    Format settings, QPel : No
    Format settings, GMC : No warppoints
    Format settings, Matrix : Default (MPEG)
    Codec ID : XVID
    Codec ID/Hint : XviD
    Duration : 1h 52mn
    Bit rate : 1 853 Kbps
    Width : 720 pixels
    Height : 304 pixels
    Display aspect ratio : 2.35:1
    Frame rate : 23.976 fps
    Color space : YUV
    Chroma subsampling : 4:2:0
    Bit depth : 8 bits
    Scan type : Progressive
    Compression mode : Lossy
    Bits/(Pixel*Frame) : 0.353
    Stream size : 1.46 GiB (71%)
    Writing library : XviD 1.2.1 (UTC 2008-12-04)

    Audio #1
    ID : 1
    Format : AC-3
    Format/Info : Audio Coding 3
    Mode extension : CM (complete main)
    Codec ID : 2000
    Duration : 1h 52mn
    Bit rate mode : Constant
    Bit rate : 384 Kbps
    Channel(s) : 6 channels
    Channel positions : Front: L C R, Side: L R, LFE
    Sampling rate : 48.0 KHz
    Bit depth : 16 bits
    Compression mode : Lossy
    Stream size : 310 MiB (15%)
    Alignment : Split accross interleaves

    Audio #2
    ID : 2
    Format : AC-3
    Format/Info : Audio Coding 3
    Mode extension : CM (complete main)
    Codec ID : 2000
    Duration : 1h 52mn
    Bit rate mode : Constant
    Bit rate : 256 Kbps
    Channel(s) : 2 channels
    Channel positions : Front: L R
    Sampling rate : 48.0 KHz
    Bit depth : 16 bits
    Compression mode : Lossy
    Stream size : 206 MiB (10%)
    Alignment : Split accross interleaves
    Скриншоты:


    © Оформление by Ворон
    freetor.icu



  • Скачать Третий лишний 2 через торрент https://pic1.kartinco.top/images/61/ordi9.jpg Скачать, смотреть онлайн Третий лишний 2 бесплантно в хорошем качестве Описание: Плюшевый беспредельщик продолжает сводить с ума чопорную интеллигенцию. На этот раз говорящий медвежонок с большим эго и его ... 9.6 10 8
    Торрент: Зарегистрирован [2015-10-15 14:16] · скачан: 38 раз
    Статус: √ проверено
    Размер: 2.05 GB
    Как cкачать? Как скачать Третий лишний 2 через торрент | UTorrent

    % Раздел Тема Автор DL S | L
    Фильмы 2015 [DVDrip, WEB-DLRip, HDrip] [ 1.46 GB ] Третий лишний 2 [2015 WEB-DLRip ] Ворон Скачать
    1 | 0
    Фильмы 2015 [DVDrip, WEB-DLRip, HDrip] [ 1.46 GB ] Третий лишний 2 / Ted 2 [2015 BDRip-AVC] Dub potroks Скачать
    1 | 0
    Фильмы (HD 720p, 1080p) (48-60 fps) [ 5.89 GB ] Третий лишний 2 / Ted 2 [2015 BDRip 720p / 60 fps Theatrical Cut - ] от R.G. HD-Films Ressident Скачать
    3 | 0
    Фильмы 2015 [DVDrip, WEB-DLRip, HDrip] [ 1.46 GB ] Третий лишний 2 / Ted 2 [2015 BDRip] Dub Twi7ter Скачать
    1 | 0
    Фильмы 2015 [DVDrip, WEB-DLRip, HDrip] [ 1.41 GB ] Третий лишний 2 / Ted 2 [2015 BDRip Twi7ter Скачать
    1 | 0
    T Фильмы (Blu-ray, BD-Remux, HDDVD) [ 27.82 GB ] Третий лишний 2 / Ted 2 [2015 BD Remux] [Unrated Cut] ] Ворон Скачать
    1 | 0
    T Фильмы [HD 720p, 1080p] (Хороший звук DUB, MVO) [ 8.43 GB ] Третий лишний 2 / Ted 2 [2015 BDRip 1080p ЦККПСС Скачать
    1 | 0

    28-11-2019 20:33  

    Отключить всю рекламу на сайте

    23-09-2015 19:59 Третий лишний 2 Скачать торрент  

    Тед и Джон снова отжигают

    После первого фильма, доставившего немало удовольствия в первую очередь из-за необычного дуэта главных героев и их фразочек, ко второй, почему-то появилось скептическое отношение. Оно укрепилось отзывами людей, которые сходили в кино и сообщили, что фильм — тупое сборище американского юмора.

    К счастью, личный просмотр этой комедии оставил совершенно другие впечатления. Да, начало истории о том, как Тед решил через суд добиться права называться человеком, может быть, не является лучшим продолжением, особенно если учитывать всю вакханалию из первой части, но, здесь ведь мы видим уже не того Теда и Джона — первый стал семейным мишкой, а у второго сердце разбито (вероятнее, от того, что Мила Кунис родила от Эштона Катчера).

    «Третий лишний 2» хоть и не лишен сортирного юмора, но все же не содержит его столько, чтобы начать плеваться и краснеть за происходящее на экране.

    Единственное, что мне не понравилось так это сцены в библиотеки с этими фантасмагоричными и галюциногенными танцами. И еще один момент — телешоу, в котором рассказывали о судьбе Теда — снято как-то никчемно, третьесортно и уныло.

    Очень трогательной оказалась одна из финальных сцен, где Тед все же дал понять, что он не набитый ватой плюшевый медведь, а человек. Также, пришлась по вкусу сцена, в которой Тед увидел зомби. Это было круто. Также как и момент с гитарой — просто огонь. Вот в этих местах зрителю гарантирован дикий смех.

    В целом, типичная комедия с обилием юмора и комичных ситуаций, определенным объемом тупых шуток, ноткой иронии, трогательными моментами, поучающими и заставляющими подумать сценами и звездами первой величины.

    Впрочем, смотреть Вам. Свое мнение никому не навязываю.

    8 из 10
    by C_B_Jfreetor.icu



      Дорогой пользователь! Огромная просьба, поблагодарите релизера, оцените раздачу и оставьте свои комментарий, если Вы скачали Третий лишний 2 через торрент бесплатно!
      Комментировать посты могут только пользователи прошедшие не сложную регистрацию
      Показать сообщения:    

      Третий лишний 2 через торрент
      Скачать бесплатно Третий лишний 2
      Третий лишний 2 скачать торрент
      Третий лишний 2 смотреть онлайн
      Cкачать фильм Третий лишний 2 бесплатно
      Третий лишний 2 скачать торрент в хорошем качестве
      Третий лишний 2 смотреть онлайн бесплатно в хорошем качестве


      Вы не можете начинать темы
      Вы не можете отвечать на сообщения
      Вы не можете редактировать свои сообщения
      Вы не можете удалять свои сообщения
      Вы не можете голосовать в опросах
      Вы не можете прикреплять файлы к сообщениям
      Вы можете скачивать файлы