Присоединяйтесь к нам в Telegram!, здесь всегда актуальный адрес сайта, оперативная поддержка и многое другое!!

>

5.9

iTunes

7.4

iTunes

9.4

1 сезон

1

7.4

2 сезон

7.2

iTunes

7.3

1 сезон

13

6.1

iTunes

8.3

GOG

30

ULTIMATE

pack

9.9

Лицензия

ВАЖНО

ИГРА 18+

pack

7.3

RePack

MK11

7.7

RePack

jed

7.8

RePack

fifa19

8.5

RePack

RDR2

RePack

NEED FOR SPEED™ PAYBACK

5 сезон

9 сезон

Бесстыжие 9 сезон

Все сериалы

все сериалы на PB.wtf

RePack

FAR CRY 5

Anonymous, доброй ночи, мы катастрофически не успеваем собрать деньги на оплату серверов, помогите нам пожалуйста 5,10,15р., для нас важна любая помощь . В качестве благодарности мы отключим Вам всю рекламу на сайте (укажите свой ник в строку Ваше имя)!

×
  
Magnet ссылка

Шпион / Spy (Пол Фиг / Paul Feig) [2015, боевик, комедия, криминал, BDRip-AVC от potroks] Dub [Расширенная версия] [Лицензия] freetor.icu

Шпион через торрент freetor.icu

Размер: 2.91 GB | Добавлен: 6 лет 1 мес. назад | Торрент скачан:199 раз
Смотреть онлайн Шпион | Скачать    Ребята, помогите собрать деньги на оплату серверов!!!

28-09-2015 21:10 Шпион Скачать торрент  

Шпион / Spy
«Одна из пижонов. Одна из шпионов»
Год выпуска: 2015
Страна: США / Twentieth Century Fox, Feigco Entertainment
Жанр: боевик, комедия, криминал
Продолжительность: 02:10:22
Перевод: Дубляж [BD EUR]
Субтитры: русские (полные + форс.), украинские (полные + форс.), английские (Full + SDH + SDH-Colored)
Навигация по главам: есть
Режиссер: Пол Фиг / Paul Feig
В ролях:

Мелисса МакКарти (Susan Cooper), Джейсон Стэйтем (Rick Ford), Джуд Лоу (Bradley Fine), Роуз Бирн (Rayna Boyanov), Миранда Харт (Nancy B. Artingstall), Бобби Каннавале (Sergio De Luca), Морена Баккарин (Karen Walker), Питер Серафинович (Aldo), Эллисон Дженни (Elaine Crocker), Ричард Брэйк (Solsa Dudaev), Раад Рави (Tihomir Boyanov), Джессика Чаффин (Sharon)
Описание: Сьюзан Купер всю свою жизнь мечтала стать секретным агентом и даже устроилась работать в ЦРУ. Однако, дальше сотрудника самой низкой ступени ей так и не удалось продвинуться. Понимая, что осуществить свою мечту практически невозможно, она все-таки продолжает надеяться на лучшее и с нетерпением ожидает своего шанса. И вскоре судьба дарит ей такую возможность. Лучший агент проваливает секретное задание, в ходе которого он должен был выяснить местонахождение ядерной бомбы, но, совершенно случайно, застрелил единственного человека, владеющего этой информацией.

Качество: BDRip-AVC
Формат: MKV
Видео кодек: AVC
Аудио кодек: AC3
Видео: AVC, 1156x484 (2.40:1), 2299 kbps, 23,976 fps, 0.171 bit/pixel
Аудио№1: AC3 / 5.1 / 48 kHz / 448 kbps / 16 bit | RUS
Аудио№2: AC3 / 5.1 / 48 kHz / 448 kbps / 16 bit | ENG

Релиз группы:
Автор рипа: potroks

Код:

Общее
Уникальный идентификатор : 195040865404374449347987808813504849625 (0x92BB811A352F14AE8B18DEFACC20E6D9)
Полное имя : Shpion.2015.Extended.DUAL.BDRip.x264.-HELLYWOOD.mkv
Формат : Matroska
Версия формата : Version 4 / Version 2
Размер файла : 2,91 Гбайт
Продолжительность : 2 ч. 10 м.
Общий поток : 3198 Кбит/сек
Название фильма : Spy [Extended] (2015) - HELLYWOOD
Дата кодирования : UTC 2015-09-28 20:56:27
Программа кодирования : mkvmerge v5.9.0 ('On The Loose') built on Dec 15 2012 16:39:58
Библиотека кодирования : libebml v1.3.0 + libmatroska v1.4.0

Видео
Идентификатор : 1
Формат : AVC
Формат/Информация : Advanced Video Codec
Профиль формата : [email protected]
Параметр CABAC формата : Да
Параметр ReFrames формата : 10 кадров
Идентификатор кодека : V_MPEG4/ISO/AVC
Продолжительность : 2 ч. 10 м.
Битрейт : 2299 Кбит/сек
Ширина : 1156 пикселей
Высота : 484 пикселя
Соотношение сторон : 2,40:1
Режим частоты кадров : Постоянный
Частота кадров : 23,976 кадра/сек
Цветовое пространство : YUV
Субдискретизация насыщенности : 4:2:0
Битовая глубина : 8 бит
Тип развёртки : Прогрессивная
Бит/(Пиксели*Кадры) : 0.171
Размер потока : 2,04 Гбайт (70%)
Заголовок : potroks
Библиотека кодирования : x264 core 146 r2538 121396c
Настройки программы : cabac=1 / ref=10 / deblock=1:-2:-2 / analyse=0x3:0x113 / me=umh / subme=11 / psy=1 / psy_rd=1.01:0.05 / mixed_ref=1 / me_range=32 / chroma_me=1 / trellis=2 / 8x8dct=1 / cqm=0 / deadzone=21,11 / fast_pskip=0 / chroma_qp_offset=-3 / threads=9 / lookahead_threads=2 / sliced_threads=0 / nr=0 / decimate=1 / interlaced=0 / bluray_compat=0 / constrained_intra=0 / bframes=11 / b_pyramid=2 / b_adapt=2 / b_bias=0 / direct=3 / weightb=1 / open_gop=0 / weightp=2 / keyint=250 / keyint_min=23 / scenecut=40 / intra_refresh=0 / rc_lookahead=60 / rc=2pass / mbtree=0 / bitrate=2299 / ratetol=1.0 / qcomp=0.70 / qpmin=0 / qpmax=69 / qpstep=4 / cplxblur=20.0 / qblur=0.5 / vbv_maxrate=14000 / vbv_bufsize=14000 / nal_hrd=none / filler=0 / ip_ratio=1.35 / pb_ratio=1.25 / aq=1:0.80
Язык : English
Default : Да
Forced : Нет

Аудио #1
Идентификатор : 2
Формат : AC-3
Формат/Информация : Audio Coding 3
Расширение режима : CM (complete main)
Параметр Endianness формата : Big
Идентификатор кодека : A_AC3
Продолжительность : 2 ч. 10 м.
Вид битрейта : Постоянный
Битрейт : 448 Кбит/сек
Каналы : 6 каналов
Расположение каналов : Front: L C R, Side: L R, LFE
Частота : 48,0 КГц
Метод сжатия : С потерями
Размер потока : 418 Мбайт (14%)
Заголовок : Dub | DD 5.1 @ 448 kbps - Blu-Ray EUR
Язык : Russian
Default : Да
Forced : Нет

Аудио #2
Идентификатор : 3
Формат : AC-3
Формат/Информация : Audio Coding 3
Расширение режима : CM (complete main)
Параметр Endianness формата : Big
Идентификатор кодека : A_AC3
Продолжительность : 2 ч. 10 м.
Вид битрейта : Постоянный
Битрейт : 448 Кбит/сек
Каналы : 6 каналов
Расположение каналов : Front: L C R, Side: L R, LFE
Частота : 48,0 КГц
Метод сжатия : С потерями
Размер потока : 418 Мбайт (14%)
Заголовок : Original | DD 5.1 @ 448 kbps
Язык : English
Default : Нет
Forced : Нет

Текст #1
Идентификатор : 4
Формат : UTF-8
Идентификатор кодека : S_TEXT/UTF8
Идентификатор кодека/Информация : UTF-8 Plain Text
Заголовок : Forced
Язык : Russian
Default : Да
Forced : Нет

Текст #2
Идентификатор : 5
Формат : UTF-8
Идентификатор кодека : S_TEXT/UTF8
Идентификатор кодека/Информация : UTF-8 Plain Text
Язык : Russian
Default : Нет
Forced : Нет

Текст #3
Идентификатор : 6
Формат : UTF-8
Идентификатор кодека : S_TEXT/UTF8
Идентификатор кодека/Информация : UTF-8 Plain Text
Заголовок : Forced
Язык : Ukrainian
Default : Нет
Forced : Нет

Текст #4
Идентификатор : 7
Формат : UTF-8
Идентификатор кодека : S_TEXT/UTF8
Идентификатор кодека/Информация : UTF-8 Plain Text
Язык : Ukrainian
Default : Нет
Forced : Нет

Текст #5
Идентификатор : 8
Формат : UTF-8
Идентификатор кодека : S_TEXT/UTF8
Идентификатор кодека/Информация : UTF-8 Plain Text
Заголовок : Full
Язык : English
Default : Нет
Forced : Нет

Текст #6
Идентификатор : 9
Формат : UTF-8
Идентификатор кодека : S_TEXT/UTF8
Идентификатор кодека/Информация : UTF-8 Plain Text
Заголовок : SDH
Язык : English
Default : Нет
Forced : Нет

Текст #7
Идентификатор : 10
Формат : UTF-8
Идентификатор кодека : S_TEXT/UTF8
Идентификатор кодека/Информация : UTF-8 Plain Text
Заголовок : SDH-Colored
Язык : English
Default : Нет
Forced : Нет

Меню
00:00:00.000 : :(01)00:00:00:000
00:03:38.592 : :(02)00:03:38:592
00:07:46.132 : :(03)00:07:46:132
00:10:08.691 : :(04)00:10:08:691
00:14:11.140 : :(05)00:14:11:140
00:15:42.857 : :(06)00:15:42:857
00:20:54.377 : :(07)00:20:54:377
00:23:25.862 : :(08)00:23:25:862
00:27:59.928 : :(09)00:27:59:928
00:31:11.076 : :(10)00:31:11:076
00:34:24.061 : :(11)00:34:24:061
00:39:30.576 : :(12)00:39:30:576
00:45:24.847 : :(13)00:45:24:847
00:47:42.317 : :(14)00:47:42:317
00:50:48.128 : :(15)00:50:48:128
00:55:26.655 : :(16)00:55:26:655
00:58:28.545 : :(17)00:58:28:545
01:03:35.728 : :(18)01:03:35:728
01:08:58.509 : :(19)01:08:58:509
01:11:00.130 : :(20)01:11:00:130
01:16:25.997 : :(21)01:16:25:997
01:22:32.905 : :(22)01:22:32:905
01:28:07.323 : :(23)01:28:07:323
01:33:11.417 : :(24)01:33:11:417
01:37:02.858 : :(25)01:37:02:858
01:40:18.427 : :(26)01:40:18:427
01:47:27.189 : :(27)01:47:27:189
01:50:45.054 : :(28)01:50:45:054
01:55:31.381 : :(29)01:55:31:381
01:59:40.463 : :(30)01:59:40:463
02:02:28.340 : :(31)02:02:28:340
02:05:03.662 : :(32)02:05:03:662

freetor.icu



Скачать Шпион через торрент http://i47.fastpic.ru/big/2015/0918/0c/b4cd74e2a2c4c20de79e5705e5158a0c.png Скачать, смотреть онлайн Шпион бесплантно в хорошем качестве Описание: Сьюзан Купер всю свою жизнь мечтала стать секретным агентом и даже устроилась работать в ЦРУ. Однако, дальше сотрудника самой ... 10 10 6
Торрент: Зарегистрирован [2015-10-15 14:24] · скачан: 199 раз
Статус: √ проверено
Размер: 2.91 GB
Как cкачать? Как скачать Шпион через торрент | UTorrent

% Раздел Тема Автор DL S | L
Фильмы 2015 [DVDrip, WEB-DLRip, HDrip] [ 1.46 GB ] Шпион / Spy [2015 BDRip] DUB Twi7ter Скачать
1 | 0
Фильмы 2018 [DVDrip, WEB-DLRip, HDrip] (DUB, MVO) [ 1.71 GB ] Шпионская игра / The Catcher Was a Spy [2018 WEB-DLRip-AVC] MVO [HDRezka Studio] + bober100 Скачать
1 | 0
Фильмы до 2000 г. [ 1.77 GB ] Неистребимый шпион / Spy Hard [1996 пародия WEB-DLRip] 2x[MVO] + [DVO] + 3х[AVO] killermax2013 Скачать
1 | 0
Ultra HD (UHD: 2K, 4K, 8K) — видео сверхвысокой чёткости [ 30.16 GB ] Шпион / Spy [2015 UHD WEBRip 2160p] DUB [] [Театральная версия] bober100 Скачать
1 | 0
Фильмы 2015 [DVDrip, WEB-DLRip, HDrip] [ 2.91 GB ] Шпионский мост / Bridge of Spies [2015 Германия Индия биография BDRip-AVC от sokol_ok] DUB sokol_ok Скачать
3 | 0
Фильмы [HD 720p, 1080p] (Хороший звук DUB, MVO) [ 7.43 GB ] Шпион / Spy [2015 BDRip 720p] Dub [Расширенная версия] [] potroks Скачать
1 | 0
Фильмы (HD 720p, 1080p) (48-60 fps) [ 6.12 GB ] Шпион / Spy [2015 BDRip 720p 60 fps от _denis_100 / NNNB] DUB AVO _denis_100 Скачать
1 | 0

28-11-2019 20:33  

Отключить всю рекламу на сайте

    Дорогой пользователь! Огромная просьба, поблагодарите релизера, оцените раздачу и оставьте свои комментарий, если Вы скачали Шпион через торрент бесплатно!
    Комментировать посты могут только пользователи прошедшие не сложную регистрацию
    Показать сообщения:    

    Шпион через торрент
    Скачать бесплатно Шпион
    Шпион скачать торрент
    Шпион смотреть онлайн
    Cкачать фильм Шпион бесплатно
    Шпион скачать торрент в хорошем качестве
    Шпион смотреть онлайн бесплатно в хорошем качестве


    Вы не можете начинать темы
    Вы не можете отвечать на сообщения
    Вы не можете редактировать свои сообщения
    Вы не можете удалять свои сообщения
    Вы не можете голосовать в опросах
    Вы не можете прикреплять файлы к сообщениям
    Вы можете скачивать файлы