Присоединяйтесь к нам в Telegram!, здесь всегда актуальный адрес сайта, оперативная поддержка и многое другое!!

>

5.9

iTunes

7.4

iTunes

9.4

1 сезон

1

7.4

2 сезон

7.2

iTunes

7.3

1 сезон

13

6.1

iTunes

8.3

GOG

30

ULTIMATE

pack

9.9

Лицензия

ВАЖНО

ИГРА 18+

pack

7.3

RePack

MK11

7.7

RePack

jed

7.8

RePack

fifa19

8.5

RePack

RDR2

RePack

NEED FOR SPEED™ PAYBACK

5 сезон

9 сезон

Бесстыжие 9 сезон

Все сериалы

все сериалы на PB.wtf

RePack

FAR CRY 5

Anonymous, добрый день, мы катастрофически не успеваем собрать деньги на оплату серверов, помогите нам пожалуйста 5,10,15р., для нас важна любая помощь . В качестве благодарности мы отключим Вам всю рекламу на сайте (укажите свой ник в строку Ваше имя)!

×
  
Magnet ссылка

Вдали от обезумевшей толпы / Far from the Madding Crowd (Томас Винтерберг) [2015 г., драма, мелодрама, HDRip, Дубляж "Лицензия"] freetor.icu

Вдали от обезумевшей толпы через торрент freetor.icu

Размер: 2.18 GB | Добавлен: 6 лет 1 мес. назад | Торрент скачан:26 раз
Смотреть онлайн Вдали от обезумевшей толпы | Скачать    Ребята, помогите собрать деньги на оплату серверов!!!

01-08-2015 15:08 Вдали от обезумевшей толпы Скачать торрент  

Вдали от обезумевшей толпы / Far from the Madding Crowd
Год выпуска: 2015
Страна: Великобритания, США / BBC Films, DNA Films, Fox Searchlight Pictures
Жанр: драма, мелодрама
Продолжительность: 01:58:40
Перевод: Дубляж (Лицензия)

Режиссер: Томас Винтерберг

IMDB 7.20 (7492)


В ролях: Кэри Маллиган, Маттиас Шонартс, Майкл Шин, Джуно Темпл, Том Стёрридж, Тилли Восберг, Марк Уингетт, Дориан Лок, Сэм Филлипс, Брэдли Холл

Описание: Унаследовав от дядюшки богатую ферму, юная Батшеба Эвердин энергично берется за дело, набрав себе рабочих. Берет она и разорившегося фермера Габриэля Оука — человека опытного и честного. Габриэль в свое время просил её руки, но потерпел неудачу. Теперь ей предлагает руку и сердце сосед, зажиточный фермер Уильям Болдвуд, но своенравная Батшеба пока не соглашается стать женой, попросив себе время на раздумья. Встреча с самовлюбленным красавцем сержантом Фрэнком Троем становится роковой для Батшебы...

Качество: HDRip
Формат: AVI
Видео кодек: XviD
Аудио кодек: AC3
Видео: 720x304 (2.37:1), 23.976 fps, XviD build 50 ~2171 kbps avg, 0.41 bit/pixel
Аудио: 48 kHz, AC3 Dolby Digital, 3/2 (L,C,R,l,r) + LFE ch, ~448 kbps

Общее
Полное имя : F:\кино\Вдали от обезумевшей толпы.2015.HDRip.avi
Формат : AVI
Формат/Информация : Audio Video Interleave
Профиль формата : OpenDML
Размер файла : 2,18 Гбайт
Продолжительность : 1 ч. 58 м.
Общий поток : 2626 Кбит/сек
Программа кодирования : VirtualDubMod 1.5.10.3 | www.virtualdub-fr.org || (build 2550/release)
Библиотека кодирования : VirtualDubMod build 2550/release

Видео
Идентификатор : 0
Формат : MPEG-4 Visual
Профиль формата : Advanced [email protected]
Параметр BVOP формата : 2
Параметр QPel формата : Нет
Параметр GMC формата : Без точки перехода
Параметр матрицы формата : Default (H.263)
Идентификатор кодека : XVID
Идентификатор кодека/Подсказка : XviD
Продолжительность : 1 ч. 58 м.
Битрейт : 2166 Кбит/сек
Ширина : 720 пикселей
Высота : 304 пикселя
Соотношение сторон : 2,35:1
Частота кадров : 23,976 кадра/сек
Цветовое пространство : YUV
Субдискретизация насыщенности : 4:2:0
Битовая глубина : 8 бит
Тип развёртки : Прогрессивная
Метод сжатия : С потерями
Бит/(Пиксели*Кадры) : 0.413
Размер потока : 1,80 Гбайт (82%)
Библиотека кодирования : XviD 1.2.1 (UTC 2008-12-04)

Аудио
Идентификатор : 1
Формат : AC-3
Формат/Информация : Audio Coding 3
Расширение режима : CM (complete main)
Параметр Endianness формата : Big
Идентификатор кодека : 2000
Продолжительность : 1 ч. 58 м.
Вид битрейта : Постоянный
Битрейт : 448 Кбит/сек
Каналы : 6 каналов
Расположение каналов : Front: L C R, Side: L R, LFE
Частота : 48,0 КГц
Метод сжатия : С потерями
Размер потока : 380 Мбайт (17%)
Выравнивание : Разделение по промежуткам
Продолжительность промежутка : 42 мс. (1,00 видеокадр)
Время предзагрузки промежутка : 500 мс.

freetor.icu



Скачать Вдали от обезумевшей толпы через торрент https://pic1.kartinco.top/images/10/i755o.jpg Скачать, смотреть онлайн Вдали от обезумевшей толпы бесплантно в хорошем качестве Описание: Унаследовав от дядюшки богатую ферму, юная Батшеба Эвердин энергично берется за дело, набрав себе рабочих. Берет она и ... 9 10 9
Торрент: Зарегистрирован [2015-10-13 10:27] · скачан: 26 раз
Статус: √ проверено
Размер: 2.18 GB
Как cкачать? Как скачать Вдали от обезумевшей толпы через торрент | UTorrent

% Раздел Тема Автор DL S | L
Фильмы (Blu-ray, BD-Remux, HDDVD) [ 40.7 GB ] Вдали от обезумевшей толпы / Far from the Madding Crowd [2015 Blu-Ray] / Russian Mafia Скачать
1 | 1
Фильмы 2015 [DVDrip, WEB-DLRip, HDrip] [ 2.18 GB ] Вдали от обезумевшей толпы / Far from the Madding Crowd [2015 BDRip-AVC] DUB potroks Скачать
1 | 0
Фильмы 2015 [DVDrip, WEB-DLRip, HDrip] [ 2.18 GB ] Вдали от обезумевшей толпы / Far from the Madding Crowd [2015 BDRip-AVC от _denis_100] DUB _denis_100 Скачать
1 | 0
Фильмы 2015 [DVDrip, WEB-DLRip, HDrip] [ 1.45 GB ] Вдали от обезумевшей толпы / Far from the Madding Crowd [2015 HDRip ] GEKADOL Скачать
1 | 0
T Фильмы [HD 720p, 1080p] (Хороший звук DUB, MVO) [ 9.05 GB ] Вдали от обезумевшей толпы / Far from the Madding Crowd [2015 BDRip 1080p ] + ENG GEKADOL Скачать
1 | 0
T Фильмы [HD 720p, 1080p] (Хороший звук DUB, MVO) [ 5.78 GB ] Вдали от обезумевшей толпы / Far from the Madding Crowd [2015 BDRip 720p ] + ENG GEKADOL Скачать
1 | 0

28-11-2019 20:33  

Отключить всю рекламу на сайте

19-09-2015 18:01 Вдали от обезумевшей толпы Скачать торрент  

Релиз обновлен ! Просьба перекачать торрент файл!freetor.icu



20-09-2015 12:31 Вдали от обезумевшей толпы Скачать торрент  

Фильм раскрывает все женскую сущностьfreetor.icu



    Дорогой пользователь! Огромная просьба, поблагодарите релизера, оцените раздачу и оставьте свои комментарий, если Вы скачали Вдали от обезумевшей толпы через торрент бесплатно!
    Комментировать посты могут только пользователи прошедшие не сложную регистрацию
    Показать сообщения:    

    Вдали от обезумевшей толпы через торрент
    Скачать бесплатно Вдали от обезумевшей толпы
    Вдали от обезумевшей толпы скачать торрент
    Вдали от обезумевшей толпы смотреть онлайн
    Cкачать фильм Вдали от обезумевшей толпы бесплатно
    Вдали от обезумевшей толпы скачать торрент в хорошем качестве
    Вдали от обезумевшей толпы смотреть онлайн бесплатно в хорошем качестве


    Вы не можете начинать темы
    Вы не можете отвечать на сообщения
    Вы не можете редактировать свои сообщения
    Вы не можете удалять свои сообщения
    Вы не можете голосовать в опросах
    Вы не можете прикреплять файлы к сообщениям
    Вы можете скачивать файлы