Присоединяйтесь к нам в Telegram!, здесь всегда актуальный адрес сайта, оперативная поддержка и многое другое!!

>

5.9

iTunes

7.4

iTunes

9.4

1 сезон

1

7.4

2 сезон

7.2

iTunes

7.3

1 сезон

13

6.1

iTunes

8.3

Пиратка

30

ULTIMATE

pack

9.9

Лицензия

ВАЖНО

ИГРА 18+

pack

7.3

RePack

MK11

7.7

RePack

jed

7.8

RePack

fifa19

8.5

RePack

RDR2

RePack

NEED FOR SPEED™ PAYBACK

5 сезон

9 сезон

Бесстыжие 9 сезон

Все сериалы

все сериалы на PB.wtf

RePack

FAR CRY 5

Anonymous, доброй ночи, мы катастрофически не успеваем собрать деньги на оплату серверов, помогите нам пожалуйста 5,10,15р., для нас важна любая помощь . В качестве благодарности мы отключим Вам всю рекламу на сайте (укажите свой ник в строку Ваше имя)!

×
  
Magnet ссылка

Беглец / The Runner (Остин Старк / Austin Stark) [2015, драма, BDRip-AVC от potroks] Dub [iTunes] freetor.icu

Беглец через торрент freetor.icu

Размер: 1.42 GB | Добавлен: 6 лет 1 мес. назад | Торрент скачан:367 раз
Смотреть онлайн Беглец | Скачать    Ребята, помогите собрать деньги на оплату серверов!!!

13-10-2015 06:31 Беглец Скачать торрент  

Беглец / The Runner
«Ложь по-американски»
Год выпуска: 2015
Страна: США / Paper Street Films, Back Lot Pictures, KGB Media
Жанр: драма
Продолжительность: 01:30:08
Перевод: Дубляж [iTunes]
Субтитры: английские (Full), английские (SDH)
Навигация по главам: есть
Режиссер: Остин Старк / Austin Stark
В ролях:

Николас Кейдж (Colin Pryce), Сара Полсон (Kate Haber), Конни Нильсен (Deborah Price), Уенделл Пирс (Frank Legrand), Брайан Бэтт (Mark Lavin), Питер Фонда (Rayne Price), Фредрик Лене (Senator Owens), Керри Кехилл (Lt. Wyman), Ванета Уолмсли (Layla), Джудд Лорманд, Цейра Пайтон (Lucy Hall), Кристофер Берри (Hal Provich)
Описание: Конгрессмен Колин Прайс безумно увлечен двумя вещами: политикой и женщинами. После аварии на нефтяной платформе его жизнь полностью меняется. Камеры наблюдения ловят его с темнокожей Люси, женой одного из пострадавших в аварии. Разразившийся сексуальный скандал ставит под угрозу не только карьеру Прайса, но и всю его жизнь. Ложь - лучший политический союзник, но что делать, когда дело касается любви?...

Качество: BDRip-AVC
Формат: MKV
Видео кодек: AVC
Аудио кодек: AC3
Видео: AVC, 968x404 (2.40:1), 1871 kbps, 23,976 fps, 0,200 bit/pixel
Аудио: AC3 / 5.1 / 48 kHz / 384 kbps / 16 bit

Релиз группы:
Автор рипа: potroks

Код:

General
Unique ID                                : 254914613582255777018342373161626875386 (0xBFC6C4CD3168AE98840BD9701F0DB5FA)
Complete name                            : N:\Драма\Begletc.2015.RUS.BDRip.x264.-HELLYWOOD.mkv
Format                                   : Matroska
Format version                           : Version 4 / Version 2
File size                                : 1.42 GiB
Duration                                 : 1h 30mn
Overall bit rate                         : 2 256 Kbps
Movie name                               : The Runner (2015) - HELLYWOOD
Encoded date                             : UTC 2010-02-22 21:41:31
Writing application                      : mkvmerge v5.8.0 ('No Sleep / Pillow') built on Sep 30 2012 10:57:14
Writing library                          : libebml v1.3.0 + libmatroska v1.4.0

Video
ID                                       : 1
Format                                   : AVC
Format/Info                              : Advanced Video Codec
Format profile                           : [email protected]
Format settings, CABAC                   : Yes
Format settings, ReFrames                : 12 frames
Codec ID                                 : V_MPEG4/ISO/AVC
Duration                                 : 1h 30mn
Bit rate                                 : 1 871 Kbps
Width                                    : 968 pixels
Height                                   : 404 pixels
Display aspect ratio                     : 2.40:1
Frame rate                               : 23.976 fps
Color space                              : YUV
Chroma subsampling                       : 4:2:0
Bit depth                                : 8 bits
Scan type                                : Progressive
Bits/(Pixel*Frame)                       : 0.200
Stream size                              : 1.15 GiB (81%)
Title                                    : potroks
Writing library                          : x264 core 148 r2597M e86f3a1
Encoding settings                        : cabac=1 / ref=12 / deblock=1:-3:-3 / analyse=0x3:0x133 / me=umh / subme=11 / psy=1 / psy_rd=0.90:0.00 / mixed_ref=1 / me_range=48 / chroma_me=1 / trellis=2 / 8x8dct=1 / cqm=0 / deadzone=21,11 / fast_pskip=0 / chroma_qp_offset=-2 / threads=10 / lookahead_threads=2 / sliced_threads=0 / nr=0 / decimate=1 / interlaced=0 / bluray_compat=0 / constrained_intra=0 / bframes=13 / b_pyramid=2 / b_adapt=2 / b_bias=0 / direct=3 / weightb=1 / open_gop=0 / weightp=2 / keyint=250 / keyint_min=23 / scenecut=40 / intra_refresh=0 / rc=2pass / mbtree=0 / bitrate=1871 / ratetol=1.0 / qcomp=0.70 / qpmin=0 / qpmax=69 / qpstep=4 / cplxblur=20.0 / qblur=0.5 / ip_ratio=1.40 / pb_ratio=1.30 / aq=1:0.90
Language                                 : English
Default                                  : Yes
Forced                                   : No
Color primaries                          : BT.709-5, BT.1361, IEC 61966-2-4, SMPTE RP177
Transfer characteristics                 : BT.709-5, BT.1361
Matrix coefficients                      : BT.709-5, BT.1361, IEC 61966-2-4 709, SMPTE RP177

Audio
ID                                       : 2
Format                                   : AC-3
Format/Info                              : Audio Coding 3
Mode extension                           : CM (complete main)
Codec ID                                 : A_AC3
Duration                                 : 1h 30mn
Bit rate mode                            : Constant
Bit rate                                 : 384 Kbps
Channel(s)                               : 6 channels
Channel positions                        : Front: L C R, Side: L R, LFE
Sampling rate                            : 48.0 KHz
Bit depth                                : 16 bits
Compression mode                         : Lossy
Stream size                              : 248 MiB (17%)
Title                                    : Dub | DD 5.1 @ 384 kbps - iTunes
Language                                 : Russian
Default                                  : Yes
Forced                                   : No

Text #1
ID                                       : 3
Format                                   : UTF-8
Codec ID                                 : S_TEXT/UTF8
Codec ID/Info                            : UTF-8 Plain Text
Title                                    : Full
Language                                 : English
Default                                  : No
Forced                                   : No

Text #2
ID                                       : 4
Format                                   : UTF-8
Codec ID                                 : S_TEXT/UTF8
Codec ID/Info                            : UTF-8 Plain Text
Title                                    : SDH
Language                                 : English
Default                                  : No
Forced                                   : No

Menu
00:00:00.000                             : en:Chapter 01
00:07:41.377                             : en:Chapter 02
00:14:38.836                             : en:Chapter 03
00:24:10.073                             : en:Chapter 04
00:30:49.389                             : en:Chapter 05
00:38:06.575                             : en:Chapter 06
00:46:31.330                             : en:Chapter 07
00:52:00.826                             : en:Chapter 08
00:58:41.559                             : en:Chapter 09
01:09:23.701                             : en:Chapter 10
01:15:25.604                             : en:Chapter 11
01:23:02.394                             : en:Chapter 12


freetor.icu



Скачать Беглец через торрент http://i69.fastpic.ru/big/2015/1013/04/204b4ef87b4e63bcd5ac32bec00b1604.png Скачать, смотреть онлайн Беглец бесплантно в хорошем качестве Описание: Конгрессмен Колин Прайс безумно увлечен двумя вещами: политикой и женщинами. После аварии на нефтяной платформе его жизнь ... 9.9 10 11
Info! Золотая раздача, скачанное не засчитывается.
Торрент: Зарегистрирован [2015-10-13 06:31] · скачан: 367 раз
Статус: √ проверено
Размер: 1.42 GB
Как cкачать? Как скачать Беглец через торрент | UTorrent

% Раздел Тема Автор DL S | L
Фильмы до 2000 г. [ 1.45 GB ] Индеец-беглец / The Indian Runner [1991 HDRip] DVO koenig Скачать
1 | 0
Фильмы 2015 [DVDrip, WEB-DLRip, HDrip] [ 2.14 GB ] Беглец / The Runner [2015 BDRip-AVC] Dub potroks Скачать
1 | 0
Фильмы с украинским озвучиванием [ 1.73 GB ] Беглец / The Runner [2015 BDRip] [Ukr DUB] + [Eng] + [Sub] killermax2013 Скачать
1 | 0


Последний раз редактировалось: potroks (2015-11-18 17:41), всего редактировалось 2 раз(а)

28-11-2019 20:33  

Отключить всю рекламу на сайте

13-10-2015 09:26 Беглец Скачать торрент  

Кейдж в последнее время снимается в каком то говне. Типа Токарева и еще какой то хери про ведьм. Будем поглядеть.freetor.icu



13-10-2015 12:05 Беглец Скачать торрент  

дак он банкрот вот иснимается где попалоfreetor.icu



14-10-2015 13:09 Беглец Скачать торрент  

Даже учитывая что фильм о политике, но всё равно слишком нудный. Спасибо за раздачу.freetor.icu



    Дорогой пользователь! Огромная просьба, поблагодарите релизера, оцените раздачу и оставьте свои комментарий, если Вы скачали Беглец через торрент бесплатно!
    Комментировать посты могут только пользователи прошедшие не сложную регистрацию
    Показать сообщения:    

    Беглец через торрент
    Скачать бесплатно Беглец
    Беглец скачать торрент
    Беглец смотреть онлайн
    Cкачать фильм Беглец бесплатно
    Беглец скачать торрент в хорошем качестве
    Беглец смотреть онлайн бесплатно в хорошем качестве


    Вы не можете начинать темы
    Вы не можете отвечать на сообщения
    Вы не можете редактировать свои сообщения
    Вы не можете удалять свои сообщения
    Вы не можете голосовать в опросах
    Вы не можете прикреплять файлы к сообщениям
    Вы можете скачивать файлы