Присоединяйтесь к нам в Telegram!, здесь всегда актуальный адрес сайта, оперативная поддержка и многое другое!!

>

5.9

iTunes

7.4

iTunes

9.4

1 сезон

1

7.4

2 сезон

7.2

iTunes

7.3

1 сезон

13

6.1

iTunes

8.3

GOG

30

ULTIMATE

pack

9.9

Лицензия

ВАЖНО

ИГРА 18+

pack

7.3

RePack

MK11

7.7

RePack

jed

7.8

RePack

fifa19

8.5

RePack

RDR2

RePack

NEED FOR SPEED™ PAYBACK

5 сезон

9 сезон

Бесстыжие 9 сезон

Все сериалы

все сериалы на PB.wtf

RePack

FAR CRY 5

Anonymous, доброй ночи, мы катастрофически не успеваем собрать деньги на оплату серверов, помогите нам пожалуйста 5,10,15р., для нас важна любая помощь . В качестве благодарности мы отключим Вам всю рекламу на сайте (укажите свой ник в строку Ваше имя)!

×
  
Magnet ссылка

Воздух / Air (Кристиан Кантамесса / Christian Cantamessa) [2015, фантастика, триллер, BDRip-AVC от potroks] MVO [Лицензия] freetor.icu

Воздух через торрент freetor.icu

Размер: 2.24 GB | Добавлен: 6 лет 1 мес. назад | Торрент скачан:1335 раз
Смотреть онлайн Воздух | Скачать    Ребята, помогите собрать деньги на оплату серверов!!!

09-10-2015 10:49 Воздух Скачать торрент  

Воздух / Air

Год выпуска: 2015
Страна: США / Automatik Entertainment, Circle of Confusion, Skybound Entertainment
Жанр: фантастика, триллер
Продолжительность: 01:34:28
Перевод: Профессиональный многоголосый [R5]
Субтитры: русские, английские (Full + SDH)
Навигация по главам: есть
Режиссер:
Кристиан Кантамесса / Christian Cantamessa
В ролях:
Норман Ридус, Джимон Хонсу, Сандрин Холт, Майкл Хоган, Питер Бенсон, Дэвид Найкл, Паула Линдберг, Стив Бёрджесс
Описание:
В центре сюжета два человека, герои Ридуса и Хонсу. Атмосфера стала совершенно непригодной для жизни, настал апокалипсис. Но у человечества еще есть шанс на спасение. Группа людей, ученых, выжила, благодаря криогенной заморозке. Только они способны спасти жизнь на Земле, и главным героям предстоит охранять их криогенный сон. Но, как оказалось, это задача не из самых простых. Впереди ребят ожидают неимоверные испытания.

Качество: BDRip-AVC
Формат: MKV
Видео кодек: AVC
Аудио кодек: AC3
Видео: AVC, 1144x480 (2.40:1), 2557 kbps, 23,976 fps, 0.194 bit/pixel
Аудио#1: AC3 / 5.1 / 48 kHz / 384 kbps / 16 bit | RUS
Аудио#2: AC3 / 5.1 / 48 kHz / 448 kbps / 16 bit | ENG

Релиз группы:
Автор рипа: potroks

Код:

General
Unique ID                   : 206214662888332812309276311235983415380 (0x9B237FDA2CCB3D27B60F4A8127719854)
Complete name               : \Vozduh.2015.DUAL.BDRip.x264.-HELLYWOOD.mkv
Format                      : Matroska
Format version              : Version 4 / Version 2
File size                   : 2.24 GiB
Duration                    : 1h 34mn
Overall bit rate            : 3 390 Kbps
Movie name                  : Air (2015) - HELLYWOOD
Encoded date                : UTC 2010-02-22 21:41:31
Writing application         : mkvmerge v5.8.0 ('No Sleep / Pillow') built on Sep 30 2012 10:57:14
Writing library             : libebml v1.3.0 + libmatroska v1.4.0

Video
ID                          : 1
Format                      : AVC
Format/Info                 : Advanced Video Codec
Format profile              : [email protected]
Format settings, CABAC      : Yes
Format settings, ReFrames   : 10 frames
Codec ID                    : V_MPEG4/ISO/AVC
Duration                    : 1h 34mn
Bit rate                    : 2 557 Kbps
Width                       : 1 144 pixels
Height                      : 480 pixels
Display aspect ratio        : 2.40:1
Frame rate mode             : Constant
Frame rate                  : 23.976 fps
Color space                 : YUV
Chroma subsampling          : 4:2:0
Bit depth                   : 8 bits
Scan type                   : Progressive
Bits/(Pixel*Frame)          : 0.194
Stream size                 : 1.64 GiB (73%)
Title                       : potroks
Writing library             : x264 core 148 r2597M e86f3a1
Encoding settings           : cabac=1 / ref=10 / deblock=1:-2:-2 / analyse=0x3:0x133 / me=umh / subme=11 / psy=1 / psy_rd=1.00:0.00 / mixed_ref=1 / me_range=48 / chroma_me=1 / trellis=2 / 8x8dct=1 / cqm=0 / deadzone=21,11 / fast_pskip=0 / chroma_qp_offset=-2 / threads=10 / lookahead_threads=2 / sliced_threads=0 / nr=0 / decimate=1 / interlaced=0 / bluray_compat=0 / constrained_intra=0 / bframes=11 / b_pyramid=2 / b_adapt=2 / b_bias=0 / direct=3 / weightb=1 / open_gop=0 / weightp=2 / keyint=250 / keyint_min=23 / scenecut=40 / intra_refresh=0 / rc=2pass / mbtree=0 / bitrate=2557 / ratetol=1.0 / qcomp=0.70 / qpmin=0 / qpmax=69 / qpstep=4 / cplxblur=20.0 / qblur=0.5 / ip_ratio=1.40 / pb_ratio=1.30 / aq=1:0.80
Language                    : English
Default                     : Yes
Forced                      : No

Audio #1
ID                          : 2
Format                      : AC-3
Format/Info                 : Audio Coding 3
Mode extension              : CM (complete main)
Format settings, Endianness : Big
Codec ID                    : A_AC3
Duration                    : 1h 34mn
Bit rate mode               : Constant
Bit rate                    : 384 Kbps
Channel(s)                  : 6 channels
Channel positions           : Front: L C R, Side: L R, LFE
Sampling rate               : 48.0 KHz
Compression mode            : Lossy
Stream size                 : 259 MiB (11%)
Title                       : MVO | DED 5.1 @ 384 kbps - R5
Language                    : Russian
Default                     : Yes
Forced                      : No

Audio #2
ID                          : 3
Format                      : AC-3
Format/Info                 : Audio Coding 3
Mode extension              : CM (complete main)
Format settings, Endianness : Big
Codec ID                    : A_AC3
Duration                    : 1h 34mn
Bit rate mode               : Constant
Bit rate                    : 448 Kbps
Channel(s)                  : 6 channels
Channel positions           : Front: L C R, Side: L R, LFE
Sampling rate               : 48.0 KHz
Compression mode            : Lossy
Stream size                 : 303 MiB (13%)
Title                       : Original | DD 5.1 @ 448 kbps
Language                    : English
Default                     : No
Forced                      : No

Text #1
ID                          : 4
Format                      : UTF-8
Codec ID                    : S_TEXT/UTF8
Codec ID/Info               : UTF-8 Plain Text
Language                    : Russian
Default                     : No
Forced                      : No

Text #2
ID                          : 5
Format                      : UTF-8
Codec ID                    : S_TEXT/UTF8
Codec ID/Info               : UTF-8 Plain Text
Title                       : Full
Language                    : English
Default                     : No
Forced                      : No

Text #3
ID                          : 6
Format                      : UTF-8
Codec ID                    : S_TEXT/UTF8
Codec ID/Info               : UTF-8 Plain Text
Title                       : SDH
Language                    : English
Default                     : No
Forced                      : No

Menu
00:00:00.000                : :(01)00:00:00:000
00:04:29.227                : :(02)00:04:29:227
00:09:10.424                : :(03)00:09:10:424
00:16:31.573                : :(04)00:16:31:573
00:23:10.555                : :(05)00:23:10:555
00:28:58.236                : :(06)00:28:58:236
00:34:35.907                : :(07)00:34:35:907
00:40:38.644                : :(08)00:40:38:644
00:45:14.795                : :(09)00:45:14:795
00:49:08.695                : :(10)00:49:08:695
00:54:54.624                : :(11)00:54:54:624
00:59:38.491                : :(12)00:59:38:491
01:04:56.475                : :(13)01:04:56:475
01:13:30.280                : :(14)01:13:30:280
01:19:13.457                : :(15)01:19:13:457
01:23:40.140                : :(16)01:23:40:140

freetor.icu



Скачать Воздух через торрент http://i71.fastpic.ru/big/2015/1009/a1/9230cf7d9e6b0a8d668bb370c7048ca1.png Скачать, смотреть онлайн Воздух бесплантно в хорошем качестве Описание: В центре сюжета два человека, герои Ридуса и Хонсу. Атмосфера стала совершенно непригодной для жизни, настал апокалипсис. Но у ... 8.9 10 30
Info! Золотая раздача, скачанное не засчитывается.
Торрент: Зарегистрирован [2015-10-09 10:49] · скачан: 1 335 раз
Статус: √ проверено
Размер: 2.24 GB
Как cкачать? Как скачать Воздух через торрент | UTorrent

% Раздел Тема Автор DL S | L
Фильмы 2015 [DVDrip, WEB-DLRip, HDrip] [ 1.45 GB ] Сопротивление воздуха / La résistance de l'air [2015 HDRip Многоголосый закадровый] coc900 Скачать
1 | 0
Фильмы [HD 720p, 1080p] (Хороший звук DUB, MVO) [ 5.24 GB ] Воздух / Air [2015 BDRip 720p / МVO diletant Скачать
1 | 0
Порно фильмы с сюжетом [ 1.37 GB ] Ножки В Воздухе / Les Jambes En L'Air [2001 Feature Foreign Straight Oral Classic Anal Big Tits DP DVDRip 544p] sheker187 Скачать
1 | 0
Фильмы 2015 [DVDrip, WEB-DLRip, HDrip] [ 1.42 GB ] Воздух / Air [2015 BDRip [] Twi7ter Скачать
1 | 0
Фильмы без перевода [ 2.81 GB ] Воздух / Air [2015 WEB-DL 720p] [ENG] killermax2013 Скачать
1 | 0
Научно-популярные фильмы [ 1.66 GB ] Нам и не снилось. Продавцы воздуха / We never dreamed of. Sellers of air [2013 документальный SATRip Оригинал] Grizzly93rus Скачать
1 | 0
Порно фильмы без сюжета [ 1.94 GB ] Любовь витает в воздухе / Love Is In The Air [2014 Feature Romance WEB-DLRip Оригинал] Magnat Скачать
1 | 0

28-11-2019 20:33  

Отключить всю рекламу на сайте

11-10-2015 14:49 Воздух Скачать торрент  

Фильм на раз, но интересен! Автору спасибо!freetor.icu



14-10-2015 17:11 Воздух Скачать торрент  

Ничего интересного ! Фильм скучный ! сюжет ниочём, один трёп без малейших эффектов ! не тратьте на него своё время !freetor.icu



14-10-2015 17:38 Воздух Скачать торрент  

sevamix писал(а):

Ничего интересного ! Фильм скучный ! сюжет ниочём, один трёп без малейших эффектов ! не тратьте на него своё время !

фильм норм!но на любителя мне лично понравился,спасибо автору.freetor.icu



18-10-2015 21:33 Воздух Скачать торрент  

Согласен, фильм так себе(((freetor.icu



    Дорогой пользователь! Огромная просьба, поблагодарите релизера, оцените раздачу и оставьте свои комментарий, если Вы скачали Воздух через торрент бесплатно!
    Комментировать посты могут только пользователи прошедшие не сложную регистрацию
    Показать сообщения:    

    Воздух через торрент
    Скачать бесплатно Воздух
    Воздух скачать торрент
    Воздух смотреть онлайн
    Cкачать фильм Воздух бесплатно
    Воздух скачать торрент в хорошем качестве
    Воздух смотреть онлайн бесплатно в хорошем качестве


    Вы не можете начинать темы
    Вы не можете отвечать на сообщения
    Вы не можете редактировать свои сообщения
    Вы не можете удалять свои сообщения
    Вы не можете голосовать в опросах
    Вы не можете прикреплять файлы к сообщениям
    Вы можете скачивать файлы