Anonymous, добрый вечер, присоединяйтесь к нам в Telegram!, здесь всегда актуальный адрес сайта, оперативная поддержка и многое другое!

>

5.6

iTunes

7.4

iTunes

7.9

MVO

1

7.7

1 сезон

6.8

iTunes

7.3

1 сезон

13

6.7

1 сезон

8.3

RePack

30

PREMIUM

pack

9.9

Лицензия

ВАЖНО

ИГРА 18+

pack

7.3

RePack

MK11

7.7

RePack

jed

7.8

RePack

fifa19

8.5

RePack

RDR2

RePack

NEED FOR SPEED™ PAYBACK

4 сезон

9 сезон

Бесстыжие 9 сезон

Все сериалы

все сериалы на PB.wtf

RePack

FAR CRY 5

Anonymous, добрый вечер, мы катастрофически не успеваем собрать деньги на оплату серверов, помогите нам пожалуйста 5,10,15р., для нас важна любая помощь . В качестве благодарности мы отключим Вам всю рекламу на сайте (укажите свой ник в строку Ваше имя)!

×
  
Magnet ссылка

Букет фиалок (Олег Бондарёв, Вера Строева) [1983, СССР, военный, драма, SATRip от AVP Studio] freetor.icu

Букет фиалок через торрент freetor.icu

Размер: 745 MB | Добавлен: 6 лет назад | Торрент скачан:7 раз
Смотреть онлайн Букет фиалок | Скачать    Ребята, помогите собрать деньги на оплату серверов!!!

07-10-2015 08:55 Букет фиалок Скачать торрент  

Букет фиалок
Страна: СССР
Производство: Мосфильм

Жанр: военный, драма
Год выпуска: 1983
Продолжительность: 01:25:01

Перевод: Не требуется
Cубтитры: нет
Оригинальная аудиодорожка: русский

Режиссер: Олег Бондарёв, Вера Строева

В ролях:
Людмила Ярошенко, Юрий Соколов (VI), Николай Мерзликин, Валерий Фролов, Павел Махотин, Владимир Яканин, Ирина Щукина, Алексей Горобченко, М. Подоплелов, О. Ирбе, Роман Хомятов, Юрий Веялис, Владимир Климентьев, Анатолий Шаляпин, Анатолий Скорякин, Олег Гречихо, Ваня Трошин, Катя Бондарева, Т. Тризнюк, Аня Парфененко, Марина Бояринова...
Полный список актёров

Описание:
Великая Отечественная война. Инженер авиаполка Берестова знакомится с летчиком-истребителем Ардатовым, жена которого погибла. Теперь он должен думать о том, как одному воспитать своих двоих детей. Однако Арбатов не доживет до победы. После войны Берестова находит его детей и усыновляет их...

Источник: DVB
Качество видео: SATRip
Формат видео: AVI

Видео: 704x288 (2,40:1), 25 fps, XviD ~ 1024 kbps avg, 0.202 bit/pixel
Аудио: 48 kHz, Dolby Digital AC3 2.0, 192 kbps

Раздача от:
Общее
Полное имя : Buket.fialok.1983.SATRip-745_[New-team]_by_AVP_Studio.avi
Формат : AVI
Формат/Информация : Audio Video Interleave
Размер файла : 745 Мбайт
Продолжительность : 1 ч. 25 м.
Общий поток : 1226 Кбит/сек
Программа кодирования : VirtualDubMod 1.5.10.3 | www.virtualdub-fr.org || (build 2550/release)
Библиотека кодирования : VirtualDubMod build 2550/release

Видео
Идентификатор : 0
Формат : MPEG-4 Visual
Профиль формата : Advanced Simple@L5
Параметр BVOP формата : 1
Параметр QPel формата : Нет
Параметр GMC формата : Без точки перехода
Параметр матрицы формата : Выборочная
Идентификатор кодека : XVID
Идентификатор кодека/Подсказка : XviD
Продолжительность : 1 ч. 25 м.
Битрейт : 1024 Кбит/сек
Ширина : 704 пикселя
Высота : 288 пикселей
Соотношение сторон : 2,40:1
Частота кадров : 25,000 кадров/сек
Цветовое пространство : YUV
Субдискретизация насыщенности : 4:2:0
Битовая глубина : 8 бит
Тип развёртки : Прогрессивная
Метод сжатия : С потерями
Бит/(Пиксели*Кадры) : 0.202
Размер потока : 623 Мбайт (84%)
Библиотека кодирования : XviD 73

Аудио
Идентификатор : 1
Формат : AC-3
Формат/Информация : Audio Coding 3
Расширение режима : CM (complete main)
Параметр Endianness формата : Big
Идентификатор кодека : 2000
Продолжительность : 1 ч. 25 м.
Вид битрейта : Постоянный
Битрейт : 192 Кбит/сек
Каналы : 2 канала
Расположение каналов : Front: L R
Частота : 48,0 КГц
Метод сжатия : С потерями
Размер потока : 117 Мбайт (16%)
Выравнивание : Разделение по промежуткам
Продолжительность промежутка : 40 мс. (1,00 видеокадр)
Время предзагрузки промежутка : 500 мс
freetor.icu



Скачать Букет фиалок через торрент http://s019.radikal.ru/i606/1510/a4/86abad47f5a0.png Скачать, смотреть онлайн Букет фиалок бесплантно в хорошем качестве Описание:Великая Отечественная война. Инженер авиаполка Берестова знакомится с летчиком-истребителем Ардатовым, жена которого погибла. ... 10 10 2
Info! Золотая раздача, скачанное не засчитывается.
Торрент: Зарегистрирован [2015-10-07 08:55] · скачан: 7 раз
Статус: √ проверено
Размер: 745 MB
Как cкачать? Как скачать Букет фиалок через торрент | UTorrent

% Раздел Тема Автор DL S | L
Кино СССР [ 1.09 GB ] Букет фиалок [1983 СССР военный SATRip-AVC от AVP Studio] AVP Studio Скачать
1 | 0

28-11-2019 20:33  

Отключить всю рекламу на сайте

    Дорогой пользователь! Огромная просьба, поблагодарите релизера, оцените раздачу и оставьте свои комментарий, если Вы скачали Букет фиалок через торрент бесплатно!
    Комментировать посты могут только пользователи прошедшие не сложную регистрацию
    Показать сообщения:    

    Букет фиалок через торрент
    Скачать бесплатно Букет фиалок
    Букет фиалок скачать торрент
    Букет фиалок смотреть онлайн
    Cкачать фильм Букет фиалок бесплатно
    Букет фиалок скачать торрент в хорошем качестве
    Букет фиалок смотреть онлайн бесплатно в хорошем качестве


    Вы не можете начинать темы
    Вы не можете отвечать на сообщения
    Вы не можете редактировать свои сообщения
    Вы не можете удалять свои сообщения
    Вы не можете голосовать в опросах
    Вы не можете прикреплять файлы к сообщениям
    Вы можете скачивать файлы