Присоединяйтесь к нам в Telegram!, здесь всегда актуальный адрес сайта, оперативная поддержка и многое другое!!

>

5.9

iTunes

7.4

iTunes

9.4

1 сезон

1

7.4

2 сезон

7.2

iTunes

7.3

1 сезон

13

6.1

iTunes

8.3

GOG

30

ULTIMATE

pack

9.9

Лицензия

ВАЖНО

ИГРА 18+

pack

7.3

RePack

MK11

7.7

RePack

jed

7.8

RePack

fifa19

8.5

RePack

RDR2

RePack

NEED FOR SPEED™ PAYBACK

5 сезон

9 сезон

Бесстыжие 9 сезон

Все сериалы

все сериалы на PB.wtf

RePack

FAR CRY 5

Anonymous, доброй ночи, мы катастрофически не успеваем собрать деньги на оплату серверов, помогите нам пожалуйста 5,10,15р., для нас важна любая помощь . В качестве благодарности мы отключим Вам всю рекламу на сайте (укажите свой ник в строку Ваше имя)!

×
  
Magnet ссылка

Милый дом / Sweet Home (Рафаэль Мартинес) [2015, ужасы, BDRip-AVC, Любительский (многоголосый)[Qwerty] freetor.icu

Милый дом через торрент freetor.icu

Размер: 1.53 GB | Добавлен: 6 лет 2 мес. назад | Торрент скачан:173 раза
Смотреть онлайн Милый дом | Скачать    Ребята, помогите собрать деньги на оплату серверов!!!

30-09-2015 14:36 Милый дом Скачать торрент  


Милый дом / Sweet Home


ИНФОРМАЦИЯ:
Год выпуска:2015
Страна: Испания, Польша
Жанр: ужасы
Продолжительность: 01:20:23
Перевод: Любительский (многоголосый)[Qwerty]
Режиссер: Рафаэль Мартинес

В Ролях:


Ингрид Гарсия Йонсон (Alicia), Бруно Севилья (Simon), Хосе Мария Бланко (Sr. Ramón), Люка Перос (Encapuchado 3), Эдуардо Льоверас (Encapuchado 1), Мигель Анхель Аларкон (Encapuchado 2), Мариона Перрье (Sra. Carmen), Oriol Tarrida «Tarro» (El Liquidador)

Описание:
Молодая пара решает провести романтический вечер на этаже полузаброшенного здания, в которое им открыт доступ, так как девушка работает консультантом по недвижимости при городском совете и имеет при себе ключи. Но вместо приятного отдыха они натыкаются на то, что несколько человек в масках убивают единственного арендатора, находящегося в здании. .. и теперь они сами становятся их мишенью.

  • Мировая премьера:8 мая 2015

    ТЕХ.ДАННЫЕ:
    Качество: BDRip-AVC
    Формат: MKV
    Видео: AVC, 1024x428 (2.40:1), 2100 kbps, 24 fps, 0,200 bpp
    Аудио №1: русский / AC3 / 2.0 / 44 kHz / 192 kbps / 16 bit ||
    Аудио №2: английский / AC3 / 5.1 / 48 kHz / 448 kbps / 16 bit
    Навигация по главам: есть


    General
    Unique ID : 218012424442500491592261869001029946202 (0xA403AA67EC1638398C1E8FC628338B5A)
    Complete name : D:\Торенты\Sweet.Home.2015.AVC.BluRay.x264.mkv
    Format : Matroska
    Format version : Version 4 / Version 2
    File size : 1.53 GiB
    Duration : 1h 20mn
    Overall bit rate : 2 719 Kbps
    Encoded date : UTC 2015-09-30 14:15:23
    Writing application : mkvmerge v8.1.0 ('Psychedelic Postcard') 32bit
    Writing library : libebml v1.3.1 + libmatroska v1.4.2

    Video
    ID : 1
    Format : AVC
    Format/Info : Advanced Video Codec
    Format profile : [email protected]
    Format settings, CABAC : Yes
    Format settings, ReFrames : 7 frames
    Codec ID : V_MPEG4/ISO/AVC
    Duration : 1h 20mn
    Bit rate : 2 100 Kbps
    Width : 1 024 pixels
    Height : 428 pixels
    Display aspect ratio : 2.40:1
    Frame rate mode : Variable
    Frame rate : 24.000 fps
    Standard : Component
    Color space : YUV
    Chroma subsampling : 4:2:0
    Bit depth : 8 bits
    Scan type : Progressive
    Bits/(Pixel*Frame) : 0.200
    Stream size : 1.14 GiB (74%)
    Writing library : x264 core 144 r2525
    Encoding settings : cabac=1 / ref=7 / deblock=1:0:0 / analyse=0x3:0x102 / me=umh / subme=7 / psy=1 / psy_rd=1.80:1.90 / mixed_ref=0 / me_range=48 / chroma_me=1 / trellis=1 / 8x8dct=1 / cqm=0 / deadzone=21,11 / fast_pskip=1 / chroma_qp_offset=-4 / threads=6 / lookahead_threads=1 / sliced_threads=0 / nr=0 / decimate=1 / interlaced=0 / bluray_compat=0 / constrained_intra=0 / bframes=5 / b_pyramid=2 / b_adapt=2 / b_bias=5 / direct=3 / weightb=1 / open_gop=0 / weightp=2 / keyint=240 / keyint_min=24 / scenecut=40 / intra_refresh=0 / rc_lookahead=40 / rc=2pass / mbtree=0 / bitrate=2100 / ratetol=1.0 / qcomp=1.00 / qpmin=16 / qpmax=69 / qpstep=5 / cplxblur=20.0 / qblur=0.5 / vbv_maxrate=50000 / vbv_bufsize=39000 / nal_hrd=none / filler=0 / ip_ratio=1.40 / pb_ratio=1.30 / aq=1:1.00
    Default : Yes
    Forced : No

    Audio #1
    ID : 2
    Format : AC-3
    Format/Info : Audio Coding 3
    Mode extension : CM (complete main)
    Codec ID : A_AC3
    Duration : 1h 20mn
    Bit rate mode : Constant
    Bit rate : 192 Kbps
    Channel(s) : 2 channels
    Channel positions : Front: L R
    Sampling rate : 44.1 KHz
    Bit depth : 16 bits
    Compression mode : Lossy
    Delay relative to video : -83ms
    Stream size : 110 MiB (7%)
    Language : Russian
    Default : Yes
    Forced : No

    Audio #2
    ID : 3
    Format : AC-3
    Format/Info : Audio Coding 3
    Mode extension : CM (complete main)
    Codec ID : A_AC3
    Duration : 1h 20mn
    Bit rate mode : Constant
    Bit rate : 448 Kbps
    Channel(s) : 6 channels
    Channel positions : Front: L C R, Side: L R, LFE
    Sampling rate : 48.0 KHz
    Bit depth : 16 bits
    Compression mode : Lossy
    Delay relative to video : -83ms
    Stream size : 258 MiB (16%)
    Language : English
    Default : No
    Forced : No

    Menu
    00:00:00.000 : en:Chapter 01
    00:11:29.666 : en:Chapter 02
    00:18:09.541 : en:Chapter 03
    00:27:57.541 : en:Chapter 04
    00:36:55.750 : en:Chapter 05
    00:50:04.625 : en:Chapter 06
    00:56:10.041 : en:Chapter 07
    01:05:32.250 : en:Chapter 08
    Скриншоты:


    © Оформление by Ворон
    freetor.icu



  • Скачать Милый дом через торрент https://pic1.kartinco.top/images/61/ordi9.jpg Скачать, смотреть онлайн Милый дом бесплантно в хорошем качестве Описание: Молодая пара решает провести романтический вечер на этаже полузаброшенного здания, в которое им открыт доступ, так как девушка ... 5.5 10 4
    Торрент: Зарегистрирован [2015-09-30 14:36] · скачан: 173 раз
    Статус: √ проверено
    Размер: 1.53 GB
    Как cкачать? Как скачать Милый дом через торрент | UTorrent

    % Раздел Тема Автор DL S | L
    Фильмы 2015 [DVDrip, WEB-DLRip, HDrip] [ 1.46 GB ] Дом милый ад / Home Sweet Hell [2015 BDRip] MVO [ R5] bober100 Скачать
    1 | 0
    Фильмы 2014 [DVDrip, WEB-DLRip, HDrip] [ 2.14 GB ] Север ада / Дом милый ад / Home Sweet Hell [2014 BDRip-AVC] MVO potroks Скачать
    1 | 0
    T Фильмы [HD 720p, 1080p] (Хороший звук DUB, MVO) [ 3.43 GB ] Милый дом / Sweet Home [2015 BDRip 720p] MVO [Qwerty] Ворон Скачать
    1 | 0
    Фильмы 2015 [DVDrip, WEB-DLRip, HDrip] [ 1.42 GB ] Милый дом / Sweet Home [2015 HDRip Любительский [Qwerty] Ворон Скачать
    1 | 0
    Фильмы 2014 [DVDrip, WEB-DLRip, HDrip] [ 1.46 GB ] Север ада / Дом милый ад / Home Sweet Hell [2014 HDRip многоголосый / ] Ворон Скачать
    1 | 0
    Фильмы [HD 720p, 1080p] (Хороший звук DUB, MVO) [ 10.65 GB ] Север ада / Дом милый ад / Home Sweet Hell [2014 BDRip 1080p многоголосый / ] Ворон Скачать
    1 | 0
    Фильмы 2014 [DVDrip, WEB-DLRip, HDrip] [ 1.64 GB ] Север ада / Дом милый ад / Home Sweet Hell [2014 BDRip-AVC MVO-] от -=DoMiNo=- Ворон Скачать
    1 | 0

    28-11-2019 20:33  

    Отключить всю рекламу на сайте

    30-09-2015 15:21 Милый дом Скачать торрент  

    Ну здесь хоть по честному, один дом и три актера))freetor.icu



      Дорогой пользователь! Огромная просьба, поблагодарите релизера, оцените раздачу и оставьте свои комментарий, если Вы скачали Милый дом через торрент бесплатно!
      Комментировать посты могут только пользователи прошедшие не сложную регистрацию
      Показать сообщения:    

      Милый дом через торрент
      Скачать бесплатно Милый дом
      Милый дом скачать торрент
      Милый дом смотреть онлайн
      Cкачать фильм Милый дом бесплатно
      Милый дом скачать торрент в хорошем качестве
      Милый дом смотреть онлайн бесплатно в хорошем качестве


      Вы не можете начинать темы
      Вы не можете отвечать на сообщения
      Вы не можете редактировать свои сообщения
      Вы не можете удалять свои сообщения
      Вы не можете голосовать в опросах
      Вы не можете прикреплять файлы к сообщениям
      Вы можете скачивать файлы