Присоединяйтесь к нам в Telegram!, здесь всегда актуальный адрес сайта, оперативная поддержка и многое другое!!

>

5.9

iTunes

7.4

iTunes

9.4

1 сезон

1

7.4

2 сезон

7.2

iTunes

7.3

iTunes

13

6.1

iTunes

8.3

Пиратка

30

ULTIMATE

pack

9.9

Лицензия

ВАЖНО

ИГРА 18+

pack

7.3

RePack

MK11

7.7

RePack

jed

7.8

RePack

fifa19

8.5

RePack

RDR2

RePack

NEED FOR SPEED™ PAYBACK

5 сезон

9 сезон

Бесстыжие 9 сезон

Все сериалы

все сериалы на PB.wtf

RePack

FAR CRY 5

Anonymous, доброе утро, мы катастрофически не успеваем собрать деньги на оплату серверов, помогите нам пожалуйста 5,10,15р., для нас важна любая помощь . В качестве благодарности мы отключим Вам всю рекламу на сайте (укажите свой ник в строку Ваше имя)!

×
  
Magnet ссылка

Милый дом / Sweet Home (Рафаэль Мартинес) [2015, ужасы, HDRip, Любительский (многоголосый)[Qwerty] freetor.icu

Милый дом через торрент freetor.icu

Размер: 1.42 GB | Добавлен: 6 лет 2 мес. назад | Торрент скачан:286 раз
Смотреть онлайн Милый дом | Скачать    Ребята, помогите собрать деньги на оплату серверов!!!

30-09-2015 14:36 Милый дом Скачать торрент  


Милый дом / Sweet Home


ИНФОРМАЦИЯ:
Год выпуска:2015
Страна: Испания, Польша
Жанр: ужасы
Продолжительность: 01:20:21
Перевод: Любительский (многоголосый) [Qwerty]
Режиссер: Рафаэль Мартинес

В Ролях:


Ингрид Гарсия Йонсон (Alicia), Бруно Севилья (Simon), Хосе Мария Бланко (Sr. Ramón), Люка Перос (Encapuchado 3), Эдуардо Льоверас (Encapuchado 1), Мигель Анхель Аларкон (Encapuchado 2), Мариона Перрье (Sra. Carmen), Oriol Tarrida «Tarro» (El Liquidador)

Описание:
Молодая пара решает провести романтический вечер на этаже полузаброшенного здания, в которое им открыт доступ, так как девушка работает консультантом по недвижимости при городском совете и имеет при себе ключи. Но вместо приятного отдыха они натыкаются на то, что несколько человек в масках убивают единственного арендатора, находящегося в здании. .. и теперь они сами становятся их мишенью.

  • Мировая премьера:8 мая 2015

    ТЕХ.ДАННЫЕ:
    Качество: HDRip
    Формат: AVI
    Видео: DivX 5, 720x304 (2.35:1), 2229 kbps, 24 fps, 0,424 bpp
    Аудио: AC3 / 2.0 / 44 kHz / 192 kbps / 16 bit


    General
    Complete name : D:\Торенты\Milyi.Dom.2015.MVO.HDRip.avi
    Format : AVI
    Format/Info : Audio Video Interleave
    File size : 1.42 GiB
    Duration : 1h 20mn
    Overall bit rate : 2 531 Kbps
    Writing application : VirtualDubMod 1.5.10.2 (build 2540/release)
    Writing library : VirtualDubMod build 2540/release

    Video
    ID : 0
    Format : MPEG-4 Visual
    Format profile : [email protected]
    Format settings, BVOP : No
    Format settings, QPel : No
    Format settings, GMC : No warppoints
    Format settings, Matrix : Default (H.263)
    Codec ID : DX50
    Codec ID/Hint : DivX 5
    Duration : 1h 20mn
    Bit rate : 2 230 Kbps
    Width : 720 pixels
    Height : 304 pixels
    Display aspect ratio : 2.35:1
    Frame rate : 24.000 fps
    Color space : YUV
    Chroma subsampling : 4:2:0
    Bit depth : 8 bits
    Scan type : Progressive
    Compression mode : Lossy
    Bits/(Pixel*Frame) : 0.424
    Stream size : 1.25 GiB (88%)
    Writing library : Lavc51.40.4

    Audio
    ID : 1
    Format : AC-3
    Format/Info : Audio Coding 3
    Mode extension : CM (complete main)
    Codec ID : 2000
    Duration : 1h 20mn
    Bit rate mode : Constant
    Bit rate : 192 Kbps
    Channel(s) : 2 channels
    Channel positions : Front: L R
    Sampling rate : 44.1 KHz
    Bit depth : 16 bits
    Compression mode : Lossy
    Stream size : 110 MiB (8%)
    Alignment : Split accross interleaves
    Title : Русская дорожка_Qwerty
    Скриншоты:


    © Оформление by Ворон
    freetor.icu



  • Скачать Милый дом через торрент https://pic1.kartinco.top/images/61/ordi9.jpg Скачать, смотреть онлайн Милый дом бесплантно в хорошем качестве Описание: Молодая пара решает провести романтический вечер на этаже полузаброшенного здания, в которое им открыт доступ, так как девушка ... 8.8 10 13
    Торрент: Зарегистрирован [2015-09-30 14:36] · скачан: 286 раз
    Статус: √ проверено
    Размер: 1.42 GB
    Как cкачать? Как скачать Милый дом через торрент | UTorrent

    % Раздел Тема Автор DL S | L
    Фильмы 2015 [DVDrip, WEB-DLRip, HDrip] [ 1.46 GB ] Дом милый ад / Home Sweet Hell [2015 BDRip] MVO [ R5] bober100 Скачать
    1 | 0
    Фильмы 2014 [DVDrip, WEB-DLRip, HDrip] [ 2.14 GB ] Север ада / Дом милый ад / Home Sweet Hell [2014 BDRip-AVC] MVO potroks Скачать
    1 | 0
    T Фильмы [HD 720p, 1080p] (Хороший звук DUB, MVO) [ 3.43 GB ] Милый дом / Sweet Home [2015 BDRip 720p] MVO [Qwerty] Ворон Скачать
    1 | 0
    Фильмы 2015 [DVDrip, WEB-DLRip, HDrip] [ 1.53 GB ] Милый дом / Sweet Home [2015 BDRip-AVC Любительский [Qwerty] Ворон Скачать
    1 | 0
    Фильмы 2014 [DVDrip, WEB-DLRip, HDrip] [ 1.46 GB ] Север ада / Дом милый ад / Home Sweet Hell [2014 HDRip многоголосый / ] Ворон Скачать
    1 | 0
    Фильмы [HD 720p, 1080p] (Хороший звук DUB, MVO) [ 10.65 GB ] Север ада / Дом милый ад / Home Sweet Hell [2014 BDRip 1080p многоголосый / ] Ворон Скачать
    1 | 0
    Фильмы 2014 [DVDrip, WEB-DLRip, HDrip] [ 1.64 GB ] Север ада / Дом милый ад / Home Sweet Hell [2014 BDRip-AVC MVO-] от -=DoMiNo=- Ворон Скачать
    1 | 0

    28-11-2019 20:33  

    Отключить всю рекламу на сайте

    01-10-2015 08:35 Милый дом Скачать торрент  

    Ингрид Гарсия Йонсон-немка испанка шведка что-ли?)))))))))))freetor.icu



      Дорогой пользователь! Огромная просьба, поблагодарите релизера, оцените раздачу и оставьте свои комментарий, если Вы скачали Милый дом через торрент бесплатно!
      Комментировать посты могут только пользователи прошедшие не сложную регистрацию
      Показать сообщения:    

      Милый дом через торрент
      Скачать бесплатно Милый дом
      Милый дом скачать торрент
      Милый дом смотреть онлайн
      Cкачать фильм Милый дом бесплатно
      Милый дом скачать торрент в хорошем качестве
      Милый дом смотреть онлайн бесплатно в хорошем качестве


      Вы не можете начинать темы
      Вы не можете отвечать на сообщения
      Вы не можете редактировать свои сообщения
      Вы не можете удалять свои сообщения
      Вы не можете голосовать в опросах
      Вы не можете прикреплять файлы к сообщениям
      Вы можете скачивать файлы