Anonymous, доброй ночи, присоединяйтесь к нам в Telegram!, здесь всегда актуальный адрес сайта, оперативная поддержка и многое другое!

>

5.6

iTunes

7.4

MVO

5.7

MVO

1

7.7

1 сезон

6.8

iTunes

7.3

1 сезон

13

6.7

1 сезон

8.3

RePack

30

ULTIMATE

pack

9.9

Лицензия

ВАЖНО

ИГРА 18+

pack

7.3

RePack

MK11

7.7

RePack

jed

7.8

RePack

fifa19

8.5

RePack

RDR2

RePack

NEED FOR SPEED™ PAYBACK

4 сезон

9 сезон

Бесстыжие 9 сезон

Все сериалы

все сериалы на PB.wtf

RePack

FAR CRY 5

Anonymous, доброй ночи, мы катастрофически не успеваем собрать деньги на оплату серверов, помогите нам пожалуйста 5,10,15р., для нас важна любая помощь . В качестве благодарности мы отключим Вам всю рекламу на сайте (укажите свой ник в строку Ваше имя)!

×
  
Magnet ссылка

Кавалер Золотой звезды (Юлий Райзман) [1950, СССР, драма, мелодрама, DVDRip от AVP Studio] freetor.icu

Кавалер Золотой звезды через торрент freetor.icu

Размер: 1.46 GB | Добавлен: 6 лет назад | Торрент скачан:22 раза
Смотреть онлайн Кавалер Золотой звезды | Скачать    Ребята, помогите собрать деньги на оплату серверов!!!

29-09-2015 13:28 Кавалер Золотой звезды Скачать торрент  

Кавалер Золотой звезды
Страна: СССР
Производство: Мосфильм

Жанр: драма, мелодрама
Год выпуска: 1950
Продолжительность: 01:50:36

Перевод: Не требуется
Cубтитры: нет
Оригинальная аудиодорожка: русский

Режиссер: Юлий Райзман

В ролях:
Сергей Бондарчук, Анатолий Чемодуров, Кира Канаева, Борис Чирков, Николай Комиссаров, Владимир Ратомский, Константин Светлов, Николай Гриценко, Иван Переверзев, Петр Кирюткин, Даниил Ильченко, Мария Яроцкая, Тамара Носова, Степан Каюков, Александра Панова, Борис Битюков...
Полный список актёров

Описание:
По одноимённому роману С.Бабаевского.
Фронтовик-орденоносец Сергей Тутаринов после войны возвращается в родную станицу с тем, чтобы принять активное участие в ее восстановлении. Его начинания горячо поддерживает секретарь райкома, однако они не находят отклик у председателя райисполкома, остро реагирующего на новые проблемы. Став председателем, Тутаринов последовательно ликвидирует все трудности и начинает строительство районной электростанции...

Источник: DVD5 R5
Качество видео: DVDRip
Формат видео: AVI

Видео: 688x512 (4:3), 25 fps, XviD ~ 1686 kbps avg, 0.191 bit/pixel
Аудио: 48 kHz, Dolby Digital AC3 2.0, 192 kbps

Раздача от:
Общее
Полное имя : Kavaler.Zolotoy.zvezdy.1950.DVDRip_[New-team]_by_AVP_Studio.avi
Формат : AVI
Формат/Информация : Audio Video Interleave
Размер файла : 1,46 Гбайт
Продолжительность : 1 ч. 50 м.
Общий поток : 1888 Кбит/сек
Программа кодирования : VirtualDubMod 1.5.10.3 | www.virtualdub-fr.org || (build 2550/release)
Библиотека кодирования : VirtualDubMod build 2550/release

Видео
Идентификатор : 0
Формат : MPEG-4 Visual
Профиль формата : Advanced Simple@L5
Параметр BVOP формата : 1
Параметр QPel формата : Нет
Параметр GMC формата : Без точки перехода
Параметр матрицы формата : Выборочная
Идентификатор кодека : XVID
Идентификатор кодека/Подсказка : XviD
Продолжительность : 1 ч. 50 м.
Битрейт : 1686 Кбит/сек
Ширина : 688 пикселей
Высота : 512 пикселей
Соотношение сторон : 4:3
Частота кадров : 25,000 кадров/сек
Цветовое пространство : YUV
Субдискретизация насыщенности : 4:2:0
Битовая глубина : 8 бит
Тип развёртки : Прогрессивная
Метод сжатия : С потерями
Бит/(Пиксели*Кадры) : 0.191
Размер потока : 1,30 Гбайт (89%)
Библиотека кодирования : XviD 73

Аудио
Идентификатор : 1
Формат : AC-3
Формат/Информация : Audio Coding 3
Расширение режима : CM (complete main)
Параметр Endianness формата : Big
Идентификатор кодека : 2000
Продолжительность : 1 ч. 50 м.
Вид битрейта : Постоянный
Битрейт : 192 Кбит/сек
Каналы : 2 канала
Расположение каналов : Front: L R
Частота : 48,0 КГц
Метод сжатия : С потерями
Размер потока : 152 Мбайт (10%)
Выравнивание : Разделение по промежуткам
Продолжительность промежутка : 40 мс. (1,00 видеокадр)
Время предзагрузки промежутка : 500 мс
freetor.icu



Скачать Кавалер Золотой звезды через торрент http://s005.radikal.ru/i212/1509/23/d6fd44de89ea.png Скачать, смотреть онлайн Кавалер Золотой звезды бесплантно в хорошем качестве Описание:По одноимённому роману С.Бабаевского.Фронтовик-орденоносец Сергей Тутаринов после войны возвращается в родную станицу с тем, чтобы ... 10 10 1
Info! Золотая раздача, скачанное не засчитывается.
Торрент: Зарегистрирован [2015-09-29 13:28] · скачан: 22 раз
Статус: √ проверено
Размер: 1.46 GB
Как cкачать? Как скачать Кавалер Золотой звезды через торрент | UTorrent

% Раздел Тема Автор DL S | L
Кино СССР [ 1.46 GB ] Кавалер Золотой звезды [1950 СССР DVDRip-AVC от AVP Studio] AVP Studio Скачать
1 | 0

28-11-2019 20:33  

Отключить всю рекламу на сайте

    Дорогой пользователь! Огромная просьба, поблагодарите релизера, оцените раздачу и оставьте свои комментарий, если Вы скачали Кавалер Золотой звезды через торрент бесплатно!
    Комментировать посты могут только пользователи прошедшие не сложную регистрацию
    Показать сообщения:    

    Кавалер Золотой звезды через торрент
    Скачать бесплатно Кавалер Золотой звезды
    Кавалер Золотой звезды скачать торрент
    Кавалер Золотой звезды смотреть онлайн
    Cкачать фильм Кавалер Золотой звезды бесплатно
    Кавалер Золотой звезды скачать торрент в хорошем качестве
    Кавалер Золотой звезды смотреть онлайн бесплатно в хорошем качестве


    Вы не можете начинать темы
    Вы не можете отвечать на сообщения
    Вы не можете редактировать свои сообщения
    Вы не можете удалять свои сообщения
    Вы не можете голосовать в опросах
    Вы не можете прикреплять файлы к сообщениям
    Вы можете скачивать файлы