Присоединяйтесь к нам в Telegram!, здесь всегда актуальный адрес сайта, оперативная поддержка и многое другое!!

>

5.9

iTunes

7.4

iTunes

9.4

1 сезон

1

7.4

2 сезон

7.2

iTunes

7.3

iTunes

13

6.1

iTunes

8.3

Пиратка

30

ULTIMATE

pack

9.9

Лицензия

ВАЖНО

ИГРА 18+

pack

7.3

RePack

MK11

7.7

RePack

jed

7.8

RePack

fifa19

8.5

RePack

RDR2

RePack

NEED FOR SPEED™ PAYBACK

5 сезон

9 сезон

Бесстыжие 9 сезон

Все сериалы

все сериалы на PB.wtf

RePack

FAR CRY 5

Anonymous, доброе утро, мы катастрофически не успеваем собрать деньги на оплату серверов, помогите нам пожалуйста 5,10,15р., для нас важна любая помощь . В качестве благодарности мы отключим Вам всю рекламу на сайте (укажите свой ник в строку Ваше имя)!

×
  
Magnet ссылка

Эшби / Ashby (Тони МакНамара) [2015, драма, мелодрама, комедия, WEB-DLRip, Дубляж - [iTunes] freetor.icu

Эшби через торрент freetor.icu

Размер: 1.46 GB | Добавлен: 6 лет 2 мес. назад | Торрент скачан:1046 раз
Смотреть онлайн Эшби | Скачать    Ребята, помогите собрать деньги на оплату серверов!!!

28-09-2015 12:38 Эшби Скачать торрент  


Эшби / Ashby
««Просто киллер»»

ИНФОРМАЦИЯ:
Год выпуска:2015
Страна: США
Жанр: драма, мелодрама, комедия
Продолжительность: 01:42:59
Перевод: Дубляж - [iTunes]
Режиссер: Тони МакНамара

В Ролях:


Микки Рурк (Ashby Holt), Нат Вулф (Ed Wallis), Эмма Робертс (Eloise), Сара Силверман (June Wallis), Кевин Данн (Coach Bruton), Захари Найтон (Father Ted), Майкл Лернер (Entwhistle), Джон Инос III (Coach Wally), Стив Култер (Peter Black), Том Ноуики (Kenrick), Адам Алдеркс (Valchek), Сет Даусмен (Garry Smits)

Описание:
Поступив в университет, Эд начинает дружить со своим соседом Эшби - бывшим киллером ЦРУ, которому осталось жить всего несколько месяцев...

  • Мировая премьера:19 апреля 2015

    ТЕХ.ДАННЫЕ:
    Качество: WEB-DLRip
    Формат: AVI
    Видео: XviD, 720x304 (2.35:1), 1828 kbps, 23,976 fps, 0,348 bpp
    Аудио: AC3 / 5.1 / 48 kHz / 384 kbps / 16 bit


    General
    Complete name : D:\Торенты\EWbY.2015.D.WEB-DLRip.1.46Gb.avi
    Format : AVI
    Format/Info : Audio Video Interleave
    File size : 1.46 GiB
    Duration : 1h 42mn
    Overall bit rate : 2 030 Kbps
    Writing application : VirtualDubMod 1.5.10.2 (build 2540/release)
    Writing library : VirtualDubMod build 2540/release

    Video
    ID : 0
    Format : MPEG-4 Visual
    Format profile : Advanced [email protected]
    Format settings, BVOP : 2
    Format settings, QPel : No
    Format settings, GMC : No warppoints
    Format settings, Matrix : Custom
    Codec ID : XVID
    Codec ID/Hint : XviD
    Duration : 1h 42mn
    Bit rate : 1 829 Kbps
    Width : 720 pixels
    Height : 304 pixels
    Display aspect ratio : 2.35:1
    Frame rate : 23.976 fps
    Color space : YUV
    Chroma subsampling : 4:2:0
    Bit depth : 8 bits
    Scan type : Progressive
    Compression mode : Lossy
    Bits/(Pixel*Frame) : 0.348
    Stream size : 1.32 GiB (90%)
    Writing library : XviD 1.2.1 (UTC 2008-12-04)

    Audio
    ID : 1
    Format : AC-3
    Format/Info : Audio Coding 3
    Mode extension : CM (complete main)
    Codec ID : 2000
    Duration : 1h 42mn
    Bit rate mode : Constant
    Bit rate : 384 Kbps
    Channel(s) : 6 channels
    Channel positions : Front: L R
    Sampling rate : 48.0 KHz
    Bit depth : 16 bits
    Compression mode : Lossy
    Stream size : 141 MiB (9%)
    Alignment : Split accross interleaves
    Interleave, duration : 42 ms (1.00 video frame)
    Interleave, preload duration : 500 ms
    Скриншоты:


    © Оформление by Ворон
    freetor.icu



  • Скачать Эшби через торрент https://pic1.kartinco.top/images/61/ordi9.jpg Скачать, смотреть онлайн Эшби бесплантно в хорошем качестве Описание: Поступив в университет, Эд начинает дружить со своим соседом Эшби - бывшим киллером ЦРУ, которому осталось жить всего несколько ... 9.7 10 21
    Торрент: Зарегистрирован [2015-09-28 12:38] · скачан: 1 046 раз
    Статус: √ проверено
    Размер: 1.46 GB
    Как cкачать? Как скачать Эшби через торрент | UTorrent

    % Раздел Тема Автор DL S | L
    Фильмы 2015 [DVDrip, WEB-DLRip, HDrip] [ 1.41 GB ] Эшби / Ashby [2015 BDRip-AVC от sokol_ok] Dub sokol_ok Скачать
    2 | 0
    Фильмы 2015 [DVDrip, WEB-DLRip, HDrip] [ 2.13 GB ] Эшби / Ashby [2015 BDRip-AVC от sokol_ok] Dub sokol_ok Скачать
    2 | 0
    Фильмы [HD 720p, 1080p] (Хороший звук DUB, MVO) [ 4.19 GB ] Эшби / Ashby [2015 BDRip 720p от _denis_100 / NNNB] - _denis_100 Скачать
    1 | 0
    R.G. Resident & PiratVoice - Фильмы, Видео [ 7.82 GB ] Эшби / Ashby [2015 BDRip 1080p ] schultz Скачать
    2 | 0
    Фильмы 2015 [DVDrip, WEB-DLRip, HDrip] [ 1.41 GB ] Эшби / Ashby [2015 BDRip] Dub Twi7ter Скачать
    1 | 0
    Фильмы [HD 720p, 1080p] (Хороший звук DUB, MVO) [ 10.18 GB ] Эшби / Ashby [2015 BDRip 1080p] ] -Lexx- Скачать
    1 | 0
    Фильмы 2015 [DVDrip, WEB-DLRip, HDrip] [ 2.13 GB ] Эшби / Ashby [2015 BDRip-AVC] Dub potroks Скачать
    1 | 0

    28-11-2019 20:33  

    Отключить всю рекламу на сайте

    28-09-2015 13:37 Эшби Скачать торрент  

    как фильм?freetor.icu



    28-09-2015 21:08 Эшби Скачать торрент  

    Стиль ТВ 1000. Под спокойную музыку рассмотреть человеческие судьбы и бытие и погонять о смысле жизни. 1 балл снял бы с рейтинга, а так ниче на разок, ну и Рурк в своем стиле последних лет. Ворону спс.freetor.icu



      Дорогой пользователь! Огромная просьба, поблагодарите релизера, оцените раздачу и оставьте свои комментарий, если Вы скачали Эшби через торрент бесплатно!
      Комментировать посты могут только пользователи прошедшие не сложную регистрацию
      Показать сообщения:    

      Эшби через торрент
      Скачать бесплатно Эшби
      Эшби скачать торрент
      Эшби смотреть онлайн
      Cкачать фильм Эшби бесплатно
      Эшби скачать торрент в хорошем качестве
      Эшби смотреть онлайн бесплатно в хорошем качестве


      Вы не можете начинать темы
      Вы не можете отвечать на сообщения
      Вы не можете редактировать свои сообщения
      Вы не можете удалять свои сообщения
      Вы не можете голосовать в опросах
      Вы не можете прикреплять файлы к сообщениям
      Вы можете скачивать файлы